<?xml version="1.0" standalone="no"?>
<!DOCTYPE svg PUBLIC "-//W3C//DTD SVG 1.1//EN" "http://www.w3.org/Graphics/SVG/1.1/DTD/svg11.dtd" >
<!--
2013-9-30: Created.
-->
<svg>
<metadata>
Created by iconfont
</metadata>
<defs>

<font id="iconfont" horiz-adv-x="1024" >
  <font-face
    font-family="iconfont"
    font-weight="500"
    font-stretch="normal"
    units-per-em="1024"
    ascent="896"
    descent="-128"
  />
    <missing-glyph />
    
    <glyph glyph-name="x" unicode="x" horiz-adv-x="1001"
d="M281 543q-27 -1 -53 -1h-83q-18 0 -36.5 -6t-32.5 -18.5t-23 -32t-9 -45.5v-76h912v41q0 16 -0.5 30t-0.5 18q0 13 -5 29t-17 29.5t-31.5 22.5t-49.5 9h-133v-97h-438v97zM955 310v-52q0 -23 0.5 -52t0.5 -58t-10.5 -47.5t-26 -30t-33 -16t-31.5 -4.5q-14 -1 -29.5 -0.5
t-29.5 0.5h-32l-45 128h-439l-44 -128h-29h-34q-20 0 -45 1q-25 0 -41 9.5t-25.5 23t-13.5 29.5t-4 30v167h911zM163 247q-12 0 -21 -8.5t-9 -21.5t9 -21.5t21 -8.5q13 0 22 8.5t9 21.5t-9 21.5t-22 8.5zM316 123q-8 -26 -14 -48q-5 -19 -10.5 -37t-7.5 -25t-3 -15t1 -14.5
t9.5 -10.5t21.5 -4h37h67h81h80h64h36q23 0 34 12t2 38q-5 13 -9.5 30.5t-9.5 34.5q-5 19 -11 39h-368zM336 498v228q0 11 2.5 23t10 21.5t20.5 15.5t34 6h188q31 0 51.5 -14.5t20.5 -52.5v-227h-327z" />
    

    
    <glyph glyph-name="feedback" unicode="&#58953;" d="M800-64L224-64c-52.928 0-96 43.072-96 96L128 672c0 52.928 43.072 96 96 96l448 0c17.696 0 32-14.336 32-32s-14.304-32-32-32L224 704C206.368 704 192 689.6320000000001 192 672l0-640c0-17.664 14.368-32 32-32l576 0c17.664 0 32 14.336 32 32L832 544c0 17.664 14.304 32 32 32s32-14.336 32-32l0-512C896-20.927999999999997 852.928-64 800-64zM612 448c-8.192 0-16.384 3.136-22.624 9.376-12.512 12.512-12.512 32.736 0 45.248l318.016 318.016c12.512 12.512 32.736 12.512 45.248 0s12.512-32.736 0-45.248l-318.016-318.016C628.384 451.104 620.192 448 612 448zM480 448L288 448c-17.664 0-32 14.336-32 32s14.336 32 32 32l192 0c17.664 0 32-14.336 32-32S497.664 448 480 448zM672 256L288 256c-17.664 0-32 14.304-32 32s14.336 32 32 32l384 0c17.696 0 32-14.304 32-32S689.696 256 672 256z"  horiz-adv-x="1024" />

    
    <glyph glyph-name="location" unicode="&#58961;" d="M512 288c-105.888 0-192 86.112-192 192s86.112 192 192 192 192-86.112 192-192S617.888 288 512 288zM512 608c-70.592 0-128-57.408-128-128s57.408-128 128-128c70.592 0 128 57.408 128 128S582.592 608 512 608zM512-64c-7.936 0-15.904 2.944-22.08 8.832-12.768 12.224-13.248 32.48-1.056 45.248C575.392 80.8 800 345.664 800 480c0 158.784-129.184 288-288 288-158.784 0-288-129.216-288-288 0-75.616 72.544-206.08 204.256-367.424 11.2-13.728 9.152-33.888-4.544-45.024-13.696-11.168-33.888-9.152-45.024 4.544C233.568 249.824 160 387.072 160 480 160 674.08 317.92 832 512 832s352-157.92 352-352c0-187.36-315.424-520.032-328.832-534.08C528.864-60.672 520.448-64 512-64z"  horiz-adv-x="1024" />

    
    <glyph glyph-name="roundcheckfill" unicode="&#58966;" d="M512 830.016C266.08 830.016 65.984 629.92 65.984 384c0-245.952 200.064-446.016 446.016-446.016 245.952 0 446.016 200.064 446.016 446.016C958.016 629.92 757.952 830.016 512 830.016zM727.232 457.568l-256.224-259.008c-0.064-0.064-0.192-0.096-0.256-0.192-0.096-0.064-0.096-0.192-0.192-0.256-2.048-1.984-4.576-3.2-6.944-4.544-1.184-0.672-2.144-1.696-3.392-2.176-3.84-1.536-7.904-2.336-11.968-2.336-4.096 0-8.224 0.8-12.096 2.4-1.28 0.544-2.304 1.632-3.52 2.304-2.368 1.344-4.832 2.528-6.88 4.544-0.064 0.064-0.096 0.192-0.16 0.256-0.064 0.096-0.192 0.096-0.256 0.192l-126.016 129.504c-12.32 12.672-12.032 32.928 0.64 45.248 12.672 12.288 32.896 12.064 45.248-0.64l103.264-106.112 233.28 235.84c12.416 12.576 32.704 12.704 45.248 0.256C739.52 490.4 739.648 470.144 727.232 457.568z"  horiz-adv-x="1024" />

    
    <glyph glyph-name="roundcheck" unicode="&#58967;" d="M512-64C264.96-64 64 136.96 64 384S264.96 832 512 832s448-200.96 448-448S759.04-64 512-64zM512 767.712C300.416 767.712 128.288 595.584 128.288 384c0-211.552 172.128-383.712 383.712-383.712 211.552 0 383.712 172.16 383.712 383.712C895.712 595.584 723.552 767.712 512 767.712zM726.976 502.816c-12.544 12.448-32.832 12.32-45.248-0.256l-233.28-235.84-103.264 106.112c-12.352 12.704-32.608 12.928-45.248 0.64-12.672-12.32-12.96-32.608-0.64-45.248l126.016-129.504c0.064-0.096 0.192-0.096 0.256-0.192 0.064-0.064 0.096-0.192 0.16-0.256 2.016-1.984 4.512-3.2 6.88-4.544 1.248-0.672 2.24-1.792 3.52-2.304 3.872-1.6 8-2.4 12.096-2.4 4.064 0 8.128 0.8 11.968 2.336 1.248 0.512 2.208 1.536 3.392 2.176 2.4 1.344 4.896 2.528 6.944 4.544 0.064 0.064 0.096 0.192 0.192 0.256 0.064 0.096 0.16 0.128 0.256 0.192l256.224 259.008C739.648 470.144 739.52 490.4 726.976 502.816z"  horiz-adv-x="1024" />

    
    <glyph glyph-name="roundclosefill" unicode="&#58968;" d="M512 832C264.992 832 64 631.04 64 384s200.96-448 448-448c247.008 0 448 200.96 448 448S759.04 832 512 832zM694.752 246.016c12.48-12.544 12.448-32.768-0.064-45.248-6.24-6.208-14.4-9.344-22.592-9.344-8.224 0-16.416 3.136-22.656 9.408l-137.6 138.016-138.048-136.576c-6.24-6.144-14.368-9.248-22.496-9.248-8.256 0-16.48 3.168-22.752 9.504-12.416 12.576-12.32 32.8 0.256 45.248l137.888 136.384-137.376 137.824c-12.48 12.512-12.448 32.768 0.064 45.248 12.512 12.512 32.736 12.448 45.248-0.064l137.568-137.984 138.048 136.576c12.544 12.448 32.832 12.32 45.248-0.256 12.448-12.576 12.32-32.832-0.256-45.248l-137.888-136.384L694.752 246.016z"  horiz-adv-x="1024" />

    
    <glyph glyph-name="roundclose" unicode="&#58969;" d="M512-64C264.96-64 64 136.96 64 384S264.96 832 512 832s448-200.96 448-448S759.04-64 512-64zM512 767.712C300.416 767.712 128.288 595.584 128.288 384c0-211.552 172.128-383.712 383.712-383.712 211.552 0 383.712 172.16 383.712 383.712C895.712 595.584 723.552 767.712 512 767.712zM557.056 382.624l138.368 136.864c12.576 12.416 12.672 32.672 0.256 45.248-12.416 12.576-32.704 12.672-45.248 0.256l-138.56-137.024-136.448 136.864c-12.512 12.512-32.736 12.576-45.248 0.064-12.512-12.48-12.544-32.736-0.064-45.248l136.256-136.672-137.376-135.904c-12.576-12.448-12.672-32.672-0.256-45.248 6.272-6.336 14.496-9.504 22.752-9.504 8.128 0 16.256 3.104 22.496 9.248l137.568 136.064 138.688-139.136c6.24-6.272 14.432-9.408 22.656-9.408 8.192 0 16.352 3.136 22.592 9.344 12.512 12.48 12.544 32.704 0.064 45.248L557.056 382.624z"  horiz-adv-x="1024" />

    
    <glyph glyph-name="search" unicode="&#58972;" d="M953.504-12.256l-152.608 163.296c61.856 74.496 95.872 167.36 95.872 265.12 0 229.344-186.624 415.968-416.032 415.968-229.344 0-415.968-186.592-415.968-415.968s186.624-415.968 416-415.968c60.096 0.032 118.048 12.576 172.224 37.248 16.096 7.328 23.2 26.304 15.872 42.368-7.328 16.128-26.4 23.264-42.368 15.872-45.856-20.864-94.88-31.456-145.76-31.488-194.08 0-351.968 157.888-351.968 351.968 0 194.048 157.888 351.968 351.968 351.968 194.112 0 352.032-157.888 352.032-351.968 0-91.36-34.848-177.92-98.08-243.744-12.256-12.736-11.84-32.992 0.864-45.248 0.96-0.928 2.208-1.28 3.296-2.08 0.864-1.28 1.312-2.752 2.4-3.904l165.504-177.088c6.272-6.752 14.816-10.144 23.36-10.144 7.84 0 15.68 2.848 21.856 8.64C964.864-45.408 965.568-25.152 953.504-12.256z"  horiz-adv-x="1024" />

    
    <glyph glyph-name="unfold" unicode="&#58977;" d="M890.336 565.088c-12.576 12.416-32.8 12.352-45.248-0.192L517.248 234.048 184.832 563.488c-12.576 12.448-32.8 12.352-45.28-0.192-12.448-12.576-12.352-32.832 0.192-45.28l353.312-350.112c0.544-0.544 1.248-0.672 1.792-1.184 0.128-0.128 0.16-0.288 0.288-0.416 6.24-6.176 14.4-9.28 22.528-9.28 8.224 0 16.48 3.168 22.72 9.472l350.112 353.312C902.976 532.384 902.88 552.64 890.336 565.088z"  horiz-adv-x="1024" />

    
    <glyph glyph-name="camerafill" unicode="&#58980;" d="M864 704 512 704c0 52.928-43.072 96-96 96l-64 0C299.072 800 256 756.928 256 704L160 704C107.072 704 64 660.928 64 608l0-512c0-52.928 43.072-96 96-96l704 0c52.928 0 96 43.072 96 96L960 608C960 660.928 916.928 704 864 704zM512 160c-105.888 0-192 86.112-192 192s86.112 192 192 192 192-86.112 192-192S617.888 160 512 160zM816 480c-26.496 0-48 21.504-48 48 0 26.496 21.504 48 48 48 26.496 0 48-21.504 48-48C864 501.504 842.496 480 816 480z"  horiz-adv-x="1024" />

    
    <glyph glyph-name="comment" unicode="&#58983;" d="M512-32c-8.192 0-16.384 3.136-22.624 9.376l-96 96c-12.512 12.512-12.512 32.736 0 45.248s32.736 12.512 45.248 0L512 45.248l73.376 73.376C591.36 124.64 599.488 128 608 128l224 0c17.664 0 32 14.336 32 32L864 672c0 17.632-14.336 32-32 32L192 704C174.368 704 160 689.632 160 672l0-512c0-17.664 14.368-32 32-32l96 0c17.664 0 32-14.304 32-32s-14.336-32-32-32L192 64c-52.928 0-96 43.072-96 96L96 672c0 52.928 43.072 96 96 96l640 0c52.928 0 96-43.072 96-96l0-512c0-52.928-43.072-96-96-96l-210.752 0-86.624-86.624C528.384-28.864 520.192-32 512-32zM336 384C309.536 384 288 405.536 288 432S309.536 480 336 480s48-21.536 48-48S362.464 384 336 384zM528 384c-26.464 0-48 21.536-48 48s21.536 48 48 48 48-21.536 48-48S554.464 384 528 384zM720 384c-26.464 0-48 21.536-48 48s21.536 48 48 48 48-21.536 48-48S746.464 384 720 384z"  horiz-adv-x="1024" />

    
    <glyph glyph-name="notificationfill" unicode="&#58986;" d="M526.432-28.064c-20.96 0-44.16 12.576-68.96 37.344L274.752 192 192 192c-52.928 0-96 43.072-96 96l0 192c0 52.928 43.072 96 96 96l82.752 0 182.624 182.624c24.576 24.576 47.744 37.024 68.864 37.024C549.184 795.648 576 780 576 736l0-704C576-12.352 549.28-28.064 526.432-28.064zM687.584 165.632c-6.464 0-12.992 1.952-18.656 6.016-14.336 10.304-17.632 30.304-7.328 44.672l12.672 17.344C707.392 278.56 736 317.376 736 384c0 69.024-25.344 102.528-57.44 144.928-5.664 7.456-11.328 15.008-16.928 22.784-10.304 14.336-7.04 34.336 7.328 44.672 14.368 10.368 34.336 7.04 44.672-7.328 5.248-7.328 10.656-14.464 15.968-21.504C764.224 521.792 800 474.496 800 384c0-87.648-39.392-141.12-74.144-188.32l-12.224-16.736C707.36 170.24 697.568 165.632 687.584 165.632zM796.448 56.992c-7.488 0-15.04 2.624-21.088 7.936-13.28 11.648-14.624 31.872-2.976 45.152C836.608 183.328 896 267.136 896 384c0 116.864-59.392 200.704-123.616 273.888-11.648 13.312-10.304 33.504 2.976 45.184 13.216 11.648 33.44 10.336 45.152-2.944C889.472 621.44 960 522.4 960 384s-70.528-237.472-139.488-316.096C814.144 60.672 805.312 56.992 796.448 56.992z"  horiz-adv-x="1024" />

    
    <glyph glyph-name="wang" unicode="&#59000;" d="M528 368c-26.528 0-48 21.472-48 48l0 64c0 26.528 21.472 48 48 48 26.496 0 48-21.472 48-48l0-64C576 389.472 554.496 368 528 368zM719.008 368c-26.496 0-48 21.472-48 48l0 64c0 26.528 21.504 48 48 48s48-21.472 48-48l0-64C767.008 389.472 745.504 368 719.008 368zM512 828.48c-81.152 0-159.488-21.696-228.48-62.72C244.96 808.032 189.056 832 125.344 832 113.696 832 103.008 825.632 97.376 815.456S92.096 792.768 98.272 782.912C98.624 782.4 131.808 728.608 140.16 646.08c1.664-16.48 15.584-28.768 31.808-28.768 1.088 0 2.144 0.032 3.264 0.16 17.568 1.792 30.4 17.472 28.608 35.072C199.488 695.52 189.44 731.84 179.36 759.328 203.84 751.136 230.336 735.488 249.504 705.92 249.6 705.76 249.76 705.696 249.856 705.536 249.952 705.408 249.952 705.28 250.016 705.152 251.168 703.488 252.8 702.496 254.176 701.12c1.536-1.536 2.848-3.328 4.64-4.48C260.64 695.456 262.72 694.944 264.704 694.144c1.824-0.704 3.488-1.728 5.376-2.112C272.16 691.616 274.24 691.904 276.32 691.904c2.016 0 4-0.32 6.016 0.064C284.32 692.352 286.08 693.408 287.968 694.176 289.92 694.944 291.936 695.296 293.76 696.448c0.128 0.096 0.192 0.256 0.352 0.352C294.24 696.864 294.4 696.896 294.528 696.96 358.624 741.12 433.824 764.48 512 764.48c211.584 0 383.712-172.128 383.712-383.744S723.584-3.008 512-3.008 128.256 169.152 128.256 380.736c0 54.176 11.04 106.528 32.864 155.616 7.168 16.128-0.096 35.04-16.256 42.24-16.128 7.168-35.04-0.096-42.24-16.256-25.44-57.312-38.368-118.4-38.368-181.568 0-246.88 200.864-447.744 447.744-447.744s447.712 200.864 447.712 447.744S758.88 828.48 512 828.48z"  horiz-adv-x="1024" />

    
    <glyph glyph-name="back" unicode="&#59001;" d="M671.968-16c-12.288 0-24.576 4.672-33.952 14.048L286.048 350.016c-18.752 18.72-18.752 49.12 0 67.872l351.968 352c18.752 18.752 49.12 18.752 67.872 0 18.752-18.72 18.752-49.12 0-67.872l-318.016-318.048 318.016-318.016c18.752-18.752 18.752-49.12 0-67.872C696.544-11.328 684.256-16 671.968-16z"  horiz-adv-x="1024" />

    
    <glyph glyph-name="settings" unicode="&#59018;" d="M512 288c-52.928 0-96 43.072-96 96s43.072 96 96 96 96-43.072 96-96S564.928 288 512 288zM512 416c-17.632 0-32-14.368-32-32s14.368-32 32-32 32 14.368 32 32S529.632 416 512 416zM631.04-64c-10.016 0-19.712 4.736-25.856 13.12l-73.408 100.48c-13.664-0.832-25.92-0.864-39.584 0l-73.376-100.48c-7.904-10.816-21.728-15.616-34.656-11.872-34.592 9.888-67.488 23.456-97.76 40.32-11.712 6.528-18.112 19.648-16.032 32.896l19.2 123.264c-9.824 8.704-19.136 18.016-27.84 27.808l-123.264-19.2c-13.056-1.984-26.336 4.352-32.896 16.064-16.896 30.368-30.464 63.296-40.32 97.824-3.68 12.864 1.056 26.72 11.904 34.624l100.448 73.376C177.152 371.04 176.928 377.6 176.928 384s0.224 12.96 0.672 19.776L77.12 477.184c-10.816 7.936-15.584 21.728-11.904 34.656 9.856 34.496 23.424 67.392 40.32 97.792 6.56 11.712 19.712 18.048 32.896 16.064l123.264-19.2c8.736 9.824 18.016 19.104 27.84 27.84l-19.2 123.264C268.288 770.816 274.72 783.936 286.432 790.464c30.4 16.896 63.296 30.464 97.76 40.32 12.928 3.648 26.72-1.056 34.656-11.904l73.376-100.448c13.568 0.896 25.824 0.896 39.584 0l73.408 100.48c7.904 10.848 21.664 15.52 34.656 11.904 34.464-9.856 67.328-23.424 97.76-40.32 11.712-6.528 18.112-19.648 16.064-32.896L734.432 634.24c9.824-8.736 19.104-18.016 27.808-27.776l123.328 19.2c13.152 2.016 26.336-4.384 32.864-16.032 16.896-30.4 30.496-63.296 40.352-97.824 3.648-12.896-1.088-26.688-11.904-34.624l-100.48-73.408c0.448-6.816 0.672-13.376 0.672-19.776s-0.224-12.96-0.672-19.776l100.48-73.376c10.816-7.904 15.552-21.728 11.904-34.624-9.856-34.496-23.424-67.424-40.352-97.824-6.528-11.712-19.488-18.048-32.896-16.064l-123.296 19.2c-8.672-9.76-17.984-19.072-27.808-27.776l19.232-123.296c2.048-13.248-4.352-26.368-16.064-32.896-30.24-16.832-63.136-30.4-97.76-40.32C636.928-63.584 633.984-64 631.04-64zM337.152 23.328c13.984-6.752 28.544-12.704 43.552-17.92l70.528 96.576c6.784 9.28 17.984 14.272 29.472 12.896 20.576-2.336 42.08-2.336 62.624 0 11.84 1.376 22.72-3.616 29.472-12.896l70.528-96.576c15.04 5.184 29.6 11.168 43.552 17.92l-18.432 118.368c-1.76 11.36 2.72 22.848 11.712 30.016 16.384 12.992 31.264 27.872 44.16 44.128 7.168 8.992 18.4 13.504 30.016 11.744l118.368-18.432c6.752 14.016 12.736 28.576 17.92 43.552l-96.576 70.528c-9.28 6.784-14.208 18.016-12.896 29.472 1.152 10.272 1.952 20.704 1.952 31.296s-0.768 21.024-1.952 31.296c-1.312 11.424 3.616 22.688 12.896 29.472l96.576 70.56c-5.152 15.008-11.168 29.568-17.92 43.552l-118.4-18.432c-11.328-1.696-22.816 2.688-29.984 11.744-12.896 16.256-27.776 31.104-44.16 44.128-8.992 7.168-13.472 18.592-11.712 29.984l18.432 118.4c-14.016 6.752-28.576 12.736-43.52 17.92l-70.56-96.576c-6.784-9.28-17.696-14.368-29.472-12.928-20.544 2.368-42.016 2.4-62.56 0-11.52-1.344-22.752 3.616-29.536 12.896l-70.528 96.576c-14.976-5.152-29.536-11.136-43.552-17.92l18.432-118.368c1.76-11.392-2.72-22.848-11.744-30.016-16.32-12.928-31.2-27.808-44.128-44.128-7.168-9.024-18.56-13.472-30.016-11.744l-118.368 18.432c-6.752-14.016-12.736-28.576-17.92-43.552l96.576-70.56c9.312-6.784 14.24-18.08 12.896-29.536C241.696 404.992 240.928 394.592 240.928 384s0.768-20.992 1.952-31.264c1.344-11.456-3.616-22.688-12.896-29.504l-96.576-70.528c5.184-15.008 11.168-29.568 17.92-43.552l118.368 18.432c11.392 1.76 22.848-2.752 30.016-11.744 12.896-16.32 27.744-31.168 44.128-44.128 9.024-7.168 13.504-18.624 11.744-30.016L337.152 23.328z"  horiz-adv-x="1024" />

    
    <glyph glyph-name="question" unicode="&#59025;" d="M512 111.648m-48 0a1.5 1.5 0 1 0 96 0 1.5 1.5 0 1 0-96 0ZM512-64C264.96-64 64 136.96 64 384S264.96 832 512 832s448-200.96 448-448S759.04-64 512-64zM512 767.712C300.416 767.712 128.288 595.584 128.288 384c0-211.552 172.128-383.712 383.712-383.712 211.552 0 383.712 172.16 383.712 383.712C895.712 595.584 723.552 767.712 512 767.712zM512 222.304c-17.664 0-32 14.336-32 32l0 54.112c0 52.352 40 92.352 75.328 127.648C581.216 461.984 608 488.736 608 510.08c0 53.344-43.072 96.736-96 96.736-53.824 0-96-41.536-96-94.56 0-17.664-14.336-32-32-32s-32 14.336-32 32c0 87.424 71.776 158.56 160 158.56s160-72.096 160-160.736c0-47.904-36.32-84.192-71.424-119.296C572.736 363.008 544 334.272 544 308.448l0-54.112C544 236.672 529.664 222.304 512 222.304z"  horiz-adv-x="1024" />

    
    <glyph glyph-name="wangfill" unicode="&#59034;" d="M512 828.512c-81.056 0-159.36-21.536-228.288-62.496C245.152 808.32 189.024 832 125.344 832 113.664 832 102.912 825.664 97.28 815.392c-5.632-10.24-5.216-22.72 1.056-32.576 0.32-0.512 31.136-49.664 40.864-128.192-8.128-27.296-26.72-65.12-37.44-94.336-22.912-62.464-37.536-116.416-37.536-179.52 0-246.88 200.864-447.776 447.744-447.776s447.712 200.864 447.712 447.776C959.712 627.648 758.88 828.512 512 828.512zM576 416c0-26.496-21.504-48-48-48S480 389.504 480 416l0 64c0 26.528 21.504 48 48 48S576 506.528 576 480L576 416zM767.008 416c0-26.496-21.504-48-48-48s-48 21.504-48 48l0 64c0 26.528 21.504 48 48 48s48-21.472 48-48L767.008 416z"  horiz-adv-x="1024" />

    
    <glyph glyph-name="home" unicode="&#59064;" d="M96 416c-9.6 0-19.2 3.2-25.6 12.8-12.8 12.8-9.6 35.2 3.2 44.8l377.6 310.4c35.2 25.6 86.4 25.6 118.4 0l377.6-307.2c12.8-9.6 16-32 3.2-44.8s-32-16-44.8-3.2l-374.4 300.8c-9.6 6.4-28.8 6.4-38.4 0l-377.6-307.2c-6.4-6.4-12.8-6.4-19.2-6.4zM816-32h-208c-19.2 0-32 12.8-32 32v150.4c0 22.4-38.4 44.8-67.2 44.8s-64-19.2-64-44.8v-150.4c0-19.2-12.8-32-32-32h-201.6c-48 0-83.2 35.2-83.2 80v304c0 19.2 12.8 32 32 32s32-12.8 32-32v-304c0-9.6 6.4-16 19.2-16h172.8v118.4c0 64 67.2 108.8 128 108.8s131.2-44.8 131.2-108.8v-118.4h176c9.6 0 16 0 16 19.2v300.8c0 19.2 12.8 32 32 32s32-12.8 32-32v-304c-3.2-48-35.2-80-83.2-80z"  horiz-adv-x="1024" />

    
    <glyph glyph-name="home-fill" unicode="&#59067;" d="M947.2 473.6L572.8 780.8c-32 25.6-86.4 25.6-118.4 0L76.8 470.4c-12.8-6.4-16-22.4-9.6-35.2 3.2-12.8 16-19.2 28.8-19.2h32v-364.8C128 3.2000000000000455 163.2-32 211.2-32H416c19.2 0 32 12.8 32 32v147.2c0 22.4 35.2 44.8 64 44.8 28.8 0 67.2-22.4 67.2-44.8V0c0-19.2 12.8-32 32-32h208c48 0 80 32 80 83.2V416h32c12.8 0 25.6 9.6 28.8 22.4 3.2 12.8 0 25.6-12.8 35.2z"  horiz-adv-x="1024" />

    
    <glyph glyph-name="fold" unicode="&#59102;" d="M887.328 278.848 533.952 628.992c-0.512 0.512-1.216 0.672-1.76 1.152-0.128 0.128-0.16 0.32-0.288 0.448-12.576 12.416-32.832 12.352-45.28-0.192L136.512 277.056c-12.448-12.576-12.352-32.8 0.192-45.248 6.24-6.176 14.4-9.28 22.528-9.28 8.224 0 16.48 3.168 22.72 9.472l327.84 330.816 332.48-329.408c6.24-6.176 14.368-9.28 22.528-9.28 8.256 0 16.48 3.168 22.72 9.472C899.968 246.144 899.872 266.4 887.328 278.848z"  horiz-adv-x="1024" />

    
    <glyph glyph-name="share" unicode="&#59123;" d="M768.704 192.384c-35.648 0-67.904-14.72-91.136-38.304l-309.152 171.712c9.056 17.568 14.688 37.184 14.688 58.272 0 12.576-2.368 24.48-5.76 35.936l304.608 189.152c22.688-20.416 52.384-33.184 85.216-33.184 70.592 0 128 57.408 128 128s-57.408 128-128 128-128-57.408-128-128c0-14.56 2.976-28.352 7.456-41.408l-301.824-187.392c-23.136 22.784-54.784 36.928-89.728 36.928-70.592 0-128-57.408-128-128 0-70.592 57.408-128 128-128 25.664 0 49.504 7.744 69.568 20.8l321.216-178.4c-3.04-10.944-5.184-22.208-5.184-34.08 0-70.592 57.408-128 128-128s128 57.408 128 128S839.328 192.384 768.704 192.384zM767.2 767.968c35.296 0 64-28.704 64-64s-28.704-64-64-64-64 28.704-64 64S731.904 767.968 767.2 767.968zM191.136 384.064c0 35.296 28.704 64 64 64s64-28.704 64-64c0-35.296-28.704-64-64-64S191.136 348.768 191.136 384.064zM768.704 0.384c-35.296 0-64 28.704-64 64s28.704 64 64 64 64-28.704 64-64S804 0.384 768.704 0.384z"  horiz-adv-x="1024" />

    
    <glyph glyph-name="notice" unicode="&#59146;" d="M889.92 146.272c-1.184 1.632-119.232 166.144-119.232 287.392 0 168.448-76.16 254.784-162.688 287.008L608 736c0 52.928-43.072 96-96 96s-96-43.072-96-96l0-16.576c-10.784-7.904-16.096-21.792-11.808-35.232 5.376-16.832 23.424-26.048 40.224-20.736C462.176 669.12 481.344 672 501.312 672l21.376 0c115.232 0 184-89.088 184-238.304 0-108.032 72.896-235.392 110.176-293.504C759.488 114.016 633.824 64 512 64c-121.504 0-247.424 50.368-304.832 76.64 37.312 57.984 110.144 185.024 110.144 293.056 0 62.432 11.616 114.208 34.528 153.92 8.832 15.328 3.584 34.88-11.712 43.712-15.392 8.864-34.88 3.584-43.712-11.712-28.608-49.536-43.104-112.096-43.104-185.92 0-121.216-118.016-285.248-119.2-286.88-5.408-7.456-7.36-16.928-5.312-25.952 2.048-8.96 7.872-16.672 16-21.024 5.664-3.072 107.392-57.28 233.536-84.512C399.744-51.072 452.16-96 512-96s112.256 44.928 133.632 111.296c126.112 27.104 227.84 80.992 233.504 84.032 8.128 4.352 14.016 12.032 16.064 21.024S895.328 138.784 889.92 146.272zM501.312 736C494.048 736 487.104 735.008 480 734.432L480 736c0 17.632 14.368 32 32 32s32-14.368 32-32l0-0.928C536.832 735.68 529.728 736 522.688 736L501.312 736zM512-32c-22.336 0-43.136 13.408-57.984 35.296C473.216 1.28 492.608 0 512 0s38.784 1.28 57.984 3.296C555.136-18.624 534.304-32 512-32z"  horiz-adv-x="1024" />

    
    <glyph glyph-name="iconfontdengdai" unicode="&#58897;" d="M511.674077 832.555016c-247.539816 0-448.208115-200.650903-448.208115-448.208115 0-247.521396 200.668299-448.208115 448.208115-448.208115s448.208115 200.686718 448.208115 448.208115C959.882192 631.904113 759.213893 832.555016 511.674077 832.555016zM672.568511 154.153148c-14.570857-14.700817-38.498826-14.700817-53.06252 0L487.018537 287.358963c-9.893324 9.956769-8.998955 23.817452-8.998955 44.900629 0 21.120017-4.779863 265.212314-4.779863 265.212314 0 20.935822 16.752546 37.897122 37.414121 37.897122 20.662599 0 37.414121-16.9613 37.414121-37.897122l0-265.212314c0-1.093914 124.792191-124.818797 124.792191-124.818797C687.422823 192.742025 687.131181 168.88773400000002 672.568511 154.153148z"  horiz-adv-x="1024" />

    
    <glyph glyph-name="eye" unicode="&#59197;" d="M992 383.904c0 5.76-0.992 10.592-1.28 11.136-0.192 2.88-1.152 8.064-2.08 10.816-0.256 0.672-0.544 1.376-0.832 2.08-0.48 1.568-1.024 3.104-1.6 4.32C897.664 605.8879999999999 707.104 736 512 736 316.928 736 126.368 605.9839999999999 38.24 413.408c-1.056-2.112-1.792-4.096-2.272-5.856-0.224-0.544-0.448-1.088-0.64-1.6-1.76-5.088-1.792-8.64-1.632-7.744-0.832-3.744-1.568-11.168-1.568-11.168-0.224-2.272-0.224-4.032 0.032-6.304 0 0 0.736-6.464 1.088-7.808 0.128-1.824 0.576-4.512 1.12-6.976l-0.032 0c0.448-2.08 1.12-4.096 1.984-6.08 0.48-1.536 0.992-2.976 1.472-4.032C126.432 162.144 316.992 32 512 32c195.136 0 385.696 130.048 473.216 321.696 1.376 2.496 2.24 4.832 2.848 6.912 0.256 0.608 0.48 1.184 0.672 1.728 1.536 4.48 1.856 8.32 1.728 8.32 0 0 0 0-0.032-0.032C991.04 373.72799999999995 992 378.36800000000005 992 383.904zM927.328 381.53599999999994c-0.032-0.16-0.096-0.32-0.128-0.48-0.128-0.416-0.288-0.864-0.416-1.376C848.032 209.91999999999996 681.696 96 512 96c-169.28 0-335.328 113.568-414.88 283.968-0.16 0.576-0.32 1.152-0.512 1.696-0.064 0.544-0.16 1.024-0.192 1.344-0.064 0.352-0.128 0.8-0.192 1.248l0.032 0.416c0.16 0.704 0.288 1.44 0.384 2.208 0.128 0.416 0.256 0.832 0.384 1.28C175.84 558.0160000000001 342.304 672 512 672c169.76 0 336.192-114.08 414.752-283.68 0.096-0.32 0.16-0.608 0.256-0.832 0.064-0.288 0.16-0.576 0.256-0.864 0.16-1.28 0.32-2.528 0.48-3.168C927.552 382.81600000000003 927.456 382.17600000000004 927.328 381.53599999999994zM512 544c-88.224 0-160-71.776-160-160s71.776-160 160-160 160 71.776 160 160S600.224 544 512 544zM512 288c-52.928 0-96 43.072-96 96s43.072 96 96 96 96-43.072 96-96S564.928 288 512 288z"  horiz-adv-x="1024" />

    
    <glyph glyph-name="news-fill" unicode="&#59200;" d="M704 163.20000000000005c51.2 0 96 41.6 96 96V672c0 51.2-41.6 96-96 96H156.8c-51.2 0-96-41.6-96-96v-412.8c0-51.2 41.6-96 96-96H192v-160c0-12.8 9.6-25.6 22.4-32H224c9.6 0 19.2 3.2 25.6 12.8l131.2 179.2H704zM864 643.2c-19.2 0-32-12.8-32-32s16-32 32-32 32-12.8 32-32v-348.8c0-19.2-16-25.6-32-25.6h-32c-19.2 0-32-12.8-32-32v-3.2c0-3.2-3.2-6.4-3.2-9.6v-60.8l-73.6 57.6c-3.2 3.2-9.6 3.2-16 3.2H544c-19.2 0-32-12.8-32-32s12.8-32 32-32h153.6l115.2-89.6c6.4-3.2 12.8-6.4 19.2-6.4 3.2 0 9.6 0 12.8 3.2 9.6 6.4 19.2 16 19.2 28.8v108.8c54.4 0 96 38.4 96 89.6V547.2c0 51.2-44.8 96-96 96z"  horiz-adv-x="1024" />

    
    <glyph glyph-name="news" unicode="&#59201;" d="M704 163.20000000000005c51.2 0 96 41.6 96 96V672c0 51.2-41.6 96-96 96H156.8c-51.2 0-96-41.6-96-96v-412.8c0-51.2 41.6-96 96-96H192v-160c0-12.8 9.6-25.6 22.4-32H224c9.6 0 19.2 3.2 25.6 12.8l131.2 179.2H704zM233.6 224c-3.2 3.2-9.6 3.2-12.8 3.2h-64c-16 0-32 12.8-32 32V672c0 16 12.8 32 32 32H704c16 0 32-12.8 32-32v-412.8c0-16-12.8-32-32-32H364.8 355.2c-3.2-3.2-3.2-3.2-6.4-3.2s-3.2-3.2-6.4-3.2l-3.2-3.2s-3.2 0-3.2-3.2L256 99.20000000000005V192c0 16-9.6 25.6-22.4 32zM864 643.2c-19.2 0-32-12.8-32-32s16-32 32-32 32-12.8 32-32v-348.8c0-19.2-16-25.6-32-25.6h-32c-19.2 0-32-12.8-32-32v-3.2c0-3.2-3.2-6.4-3.2-9.6v-60.8l-73.6 57.6c-3.2 3.2-9.6 3.2-16 3.2H544c-19.2 0-32-12.8-32-32s12.8-32 32-32h153.6l115.2-89.6c6.4-3.2 12.8-6.4 19.2-6.4 3.2 0 9.6 0 12.8 3.2 9.6 6.4 19.2 16 19.2 28.8v108.8c54.4 0 96 38.4 96 89.6V547.2c0 51.2-44.8 96-96 96z"  horiz-adv-x="1024" />

    
    <glyph glyph-name="safe" unicode="&#59241;" d="M712.416 538.944l-233.344-235.808-103.264 106.112c-12.384 12.704-32.608 12.928-45.248 0.64-12.672-12.32-12.96-32.608-0.64-45.248l126.016-129.504c0.064-0.096 0.192-0.096 0.256-0.192 0.064-0.064 0.096-0.192 0.16-0.256 2.08-2.048 4.608-3.264 7.008-4.64 1.184-0.672 2.176-1.728 3.392-2.208 3.872-1.6 7.968-2.4 12.096-2.4 4.064 0 8.128 0.8 11.968 2.336 1.248 0.512 2.208 1.536 3.392 2.176 2.4 1.344 4.896 2.528 6.944 4.544 0.064 0.064 0.096 0.192 0.192 0.256 0.064 0.096 0.16 0.128 0.256 0.192l256.288 259.008c12.448 12.576 12.32 32.8-0.256 45.248C745.12 551.616 724.8 551.52 712.416 538.944zM517.44 831.52c-3.552 0.608-7.168 0.64-10.72 0.032-95.712-16.064-408-77.728-408-196.864 0-385.792 312.032-701.344 413.312-701.344 99.52 0 418.688 323.488 418.688 701.344C930.688 748.064 641.696 810.112 517.44 831.52zM512-2.624C453.216 3.008 162.688 278.56 162.688 634.688c0 38.464 165.792 101.344 349.248 132.832 186.336-32.768 354.752-95.68 354.752-132.832C866.688 279.264 571.68 3.2 512-2.624z"  horiz-adv-x="1024" />

    
    <glyph glyph-name="my" unicode="&#59275;" d="M800 512c0 160-128 288-288 288s-288-128-288-288c0-108.8 57.6-201.6 147.2-249.6-121.6-48-214.4-153.6-240-288-3.2-16 6.4-35.2 25.6-38.4h6.4c16 0 28.8 9.6 32 25.6 28.8 150.4 160 259.2 313.6 262.4h6.4c156.8 0 284.8 128 284.8 288zM288 512c0 124.8 99.2 224 224 224s224-99.2 224-224c0-121.6-99.2-220.8-220.8-224h-9.6c-121.6 3.2-217.6 102.4-217.6 224zM723.2 220.8c-16 9.6-35.2 6.4-44.8-9.6-9.6-16-6.4-35.2 9.6-44.8 73.6-51.2 124.8-121.6 140.8-204.8 3.2-16 16-25.6 32-25.6h6.4c16 3.2 28.8 19.2 25.6 38.4-19.2 99.2-80 185.6-169.6 246.4z"  horiz-adv-x="1024" />

    
    <glyph glyph-name="my-fill" unicode="&#59276;" d="M649.6 262.4c86.4 48 147.2 144 147.2 249.6 0 160-128 288-288 288s-288-128-288-288c0-108.8 57.6-201.6 147.2-249.6-121.6-48-214.4-153.6-240-288-3.2-9.6 0-19.2 6.4-25.6 3.2-9.6 12.8-12.8 22.4-12.8h704c9.6 0 19.2 3.2 25.6 12.8 6.4 6.4 9.6 16 6.4 25.6-25.6 134.4-121.6 240-243.2 288z"  horiz-adv-x="1024" />

    
    <glyph glyph-name="ask" unicode="&#58957;" d="M512 835.91154197c-249.57568133 0-451.91154197-202.33586063-451.91154197-451.91154197s202.33586063-451.91154197 451.91154197-451.91154197c249.57568133 0 451.91154197 202.33586063 451.91154197 451.91154197S761.57568133 835.91154197 512 835.91154197zM301.04769262 106.10452953000004L244.82989691 106.10452953000004 244.82989691 567.47608597l56.21779571 0L301.04769262 106.10452953000004zM278.93415425 653.94182734l33.56196364 30.00692592c21.57124464-20.42640159 50.01154363-49.04746604 85.32089961-85.92344763L359.55517314 564.5235976C325.81244406 603.7495195500001 298.93877198 633.57568133 278.93415425 653.94182734zM432.28280444 263.24923584l0-33.56196363L378.59571324 229.68727220999995 378.59571324 475.04511225l255.11912983 2e-8 0-211.85613071L432.28280444 263.18898156zM770.25238237 191.42542784c0-56.88059932-25.72883034-85.32089962-77.06598119-85.32089962-33.38119949 0-65.49704605 0.42178388-96.52830516 1.20509734-1.56662693 11.74970057-4.69987945 27.65698684-9.39976018 47.66160455 32.53763043-2.34994037 63.93041914-3.55503771 94.17836479-3.55503769 28.62106446 0 42.96172381 15.30473697 42.9617238 45.91421221L724.39842443 595.5548566800001 433.72892149 595.5548566800001 433.72892149 626.52586151l336.58371644 0L770.31263793 191.42542784zM434.15070537 295.48559227l155.33706097 0L589.48776634 444.73691101 434.15070537 444.73691101 434.15070537 295.48559227z"  horiz-adv-x="1024" />

    
    <glyph glyph-name="qq" unicode="&#58925;" d="M550.744931 61.193966 550.744931 61.193966c-11.183713 0-16.754592 0-22.327518 0-5.53404 0-11.144828 0-16.718777 0l-5.572926 0c-5.571902 0-16.717753 0-22.289656-5.53404-22.290679-22.326495-61.298088-33.475416-111.453395-33.475416-33.434483 0-61.298088 5.610788-89.163739 16.7198-22.289656 11.143805-33.435507 22.326495-33.435507 39.009456 0 16.717753 11.143805 27.862581 39.009456 39.045271 16.717753 5.535063 22.289656 11.106965 22.289656 22.326495 0 11.106965 0 22.25384-5.572926 27.863604-11.144828 11.034311-16.718777 27.788903-27.863604 38.896892-5.572926 11.144828-16.71673 16.755616-27.861558 16.755616l0 0c-11.144828 0-16.717753-5.608741-27.863604-11.220552-11.143805-11.106965-16.717753-16.644075-22.290679-16.644075l0 0c-5.572926 0-11.106965 16.644075-11.106965 44.505633 0 27.863604 5.535063 61.336974 11.070126 94.810343 11.145851 33.398668 27.862581 61.261249 55.725162 89.124853 5.574972 5.535063 11.146874 16.717753 11.146874 27.863604 0 5.53404 0 5.53404 0 11.106965 0 16.755616 5.571902 33.435507 16.71673 50.154283 5.573949 5.572926 5.573949 11.143805 5.573949 16.717753l0 5.573949c0.035816 66.908876 22.288632 122.635061 72.480778 172.789345 44.582381 50.191122 100.30652 72.444962 167.180604 72.444962 66.872037 0 122.600269-22.290679 172.751482-72.444962 44.618197-50.154283 72.480778-105.880469 72.480778-172.715667 0 0 0 0 0-5.572926 0-5.573949 0-11.144828 5.536087-16.717753 11.141758-16.718777 16.717753-33.398668 16.717753-50.154283 0-5.572926 0-5.572926 0-11.106965 0-11.144828 0-22.326495 11.143805-27.862581 27.863604-27.862581 44.581358-55.726186 55.726186-89.124853 11.144828-33.474392 16.717753-66.944691 11.144828-94.810343 0-27.862581-5.573949-38.97057-16.681938-44.50768-5.573949 0-11.183713 5.535063-22.328541 16.645099-5.533017 5.572926-16.718777 11.219529-27.861558 11.219529l-5.536087 0c-11.184737 0-22.325471-5.606695-27.861558-16.753569-5.573949-16.71673-16.754592-27.863604-27.863604-38.969547-5.572926-5.608741-11.18269-16.754592-5.572926-27.863604 0-11.220552 11.145851-16.753569 16.682961-22.326495 27.826765-11.219529 39.010479-22.364357 39.010479-39.08211 0-16.680914-11.183713-27.863604-33.43653-39.008432-22.289656-11.106965-55.724139-16.7198-89.164762-16.7198-50.15326 0-83.58979 11.184737-111.452371 33.474392 5.571902 0-5.572926 5.572926-11.106965 5.572926l0 0L550.744931 61.193966zM678.880263-44.724365c55.726186 0 100.30652 11.143805 133.74305 33.398668 33.435507 22.326495 55.724139 50.191122 55.724139 89.163739 0 22.291702-5.53404 39.046295-16.678868 55.726186 5.571902 0 16.678868 0 22.287609 5.608741 33.435507 11.106965 50.15633 38.97057 55.727209 83.591837 5.571902 38.9675 0 83.58979-16.681938 133.706211-11.18269 39.046295-33.435507 72.444962-61.297065 105.880469l0 0c0 27.862581-5.573949 50.154283-16.7198 78.015841 0 83.590813-27.861558 156.034752-89.124853 217.370703C684.450119 819.036118 612.004133 846.901769 528.418436 846.901769c-83.590813 0-156.034752-27.862581-217.334887-89.124853-55.764048-61.33595-89.163739-133.781936-89.163739-217.370703-11.143805-22.290679-16.717753-50.154283-16.717753-78.016865l0-5.571902c-33.434483-27.863604-50.154283-66.87306-61.298088-100.305497-16.718777-50.118468-22.290679-94.737688-16.718777-133.708258 5.573949-44.61922 27.863604-72.482825 55.726186-83.590813 5.572926 0 16.718777-5.608741 22.290679-5.608741-11.144828-16.681938-16.718777-33.43653-16.718777-55.726186 0-33.435507 16.718777-66.872037 55.727209-89.163739 33.435507-22.291702 78.015841-33.435507 128.169101-33.435507 55.725162 0 105.880469 11.142781 139.316999 39.007409l27.863604 0c39.045271-27.862581 83.590813-39.007409 139.316999-39.007409l0 0L678.880263-44.724365z"  horiz-adv-x="1024" />

    
    <glyph glyph-name="text" unicode="&#59281;" d="M886.624 598.624l-191.968 191.968c-2.944 2.944-6.432 5.312-10.336 6.912C680.48 799.136 676.288 800 672 800L224 800C171.072 800 128 756.928 128 704l0-640c0-52.928 43.072-96 96-96l576 0c52.928 0 96 43.072 96 96L896 576C896 584.48 892.64 592.64 886.624 598.624zM704 690.752 818.752 576 704 576 704 690.752zM800 32 224 32c-17.632 0-32 14.336-32 32L192 704c0 17.632 14.368 32 32 32l416 0 0-192c0-17.664 14.304-32 32-32l160 0 0-448C832 46.336 817.664 32 800 32zM288 544l192 0c17.664 0 32 14.336 32 32s-14.336 32-32 32L288 608c-17.664 0-32-14.336-32-32S270.336 544 288 544zM608 416 288 416c-17.664 0-32-14.336-32-32s14.336-32 32-32l320 0c17.696 0 32 14.336 32 32S625.696 416 608 416zM608 224 288 224c-17.664 0-32-14.304-32-32s14.336-32 32-32l320 0c17.696 0 32 14.304 32 32S625.696 224 608 224z"  horiz-adv-x="1024" />

    
    <glyph glyph-name="tianjia" unicode="&#58958;" d="M509.72826 803.146219c-231.475955 0-419.148265-187.67231-419.148265-419.148265 0-231.470839 187.67231-419.143149 419.148265-419.143149 231.498468 0 419.143149 187.67231 419.143149 419.143149C928.871409 615.473909 741.226728 803.146219 509.72826 803.146219L509.72826 803.146219zM745.847979 357.804385 535.921829 357.804385 535.921829 147.878235c0-14.278191-11.736299-25.846668-26.193569-25.846668-14.474666 0-26.198685 11.568477-26.198685 25.846668L483.529575 357.804385 273.603425 357.804385c-14.278191 0-25.841551 11.736299-25.841551 26.193569 0 14.474666 11.592013 26.198685 25.841551 26.198685l209.92615 0L483.529575 620.150418c0 14.250562 11.724019 25.813922 26.198685 25.813922 14.45727 0 26.193569-11.56336 26.193569-25.813922l0-209.953779 209.92615 0c14.305821 0 25.846668-11.724019 25.846668-26.198685C771.694647 369.540683 760.1538 357.804385 745.847979 357.804385L745.847979 357.804385zM745.847979 357.804385"  horiz-adv-x="1024" />

    
    <glyph glyph-name="triangledown-fill" unicode="&#59291;" d="M957.056 557.376C951.84 568.704 940.512 576 928 576L96 576c-12.512 0-23.84-7.296-29.088-18.624-5.216-11.36-3.328-24.704 4.768-34.208l416-485.344c6.08-7.104 14.944-11.2 24.288-11.2s18.208 4.096 24.288 11.2l416 485.344C960.448 532.672 962.272 546.0160000000001 957.056 557.376z"  horiz-adv-x="1024" />

    
    <glyph glyph-name="triangleup-fill" unicode="&#59292;" d="M952.32 180.79999999999995l-416 485.376c-12.16 14.176-36.448 14.176-48.608 0l-416-485.376c-8.128-9.472-9.984-22.848-4.768-34.176C72.16 135.29600000000005 83.488 128 96 128l832 0c12.512 0 23.84 7.296 29.056 18.624S960.448 171.32799999999997 952.32 180.79999999999995z"  horiz-adv-x="1024" />

    
    <glyph glyph-name="zhengpinbaozhangduigou" unicode="&#58921;" d="M461.015563 110.466541c-12.298765 0-24.59878 4.697506-33.978791 14.091267L229.42903 322.136799c-18.750023 18.765023-18.750023 49.17006 0 67.935083 18.745023 18.763773 49.17006 18.763773 67.925083 0l163.66145-163.6727 418.05801 418.10676c18.765023 18.763773 49.18006 18.763773 67.943833 0 18.730023-18.741273 18.730023-49.15631 0-67.925083L494.956854 124.544058C485.586843 115.164047 473.276828 110.466541 461.015563 110.466541L461.015563 110.466541zM512.003125-128C229.68778-128 0 101.68278 0 383.995625 0 666.31222 229.68778 896 512.003125 896c100.707623 0 198.193992-29.223786 281.875344-84.511353 16.855021-11.133764 21.485026-33.818791 10.366263-50.673812-11.132514-16.846271-33.818791-21.500026-50.673812-10.366263-71.698838 47.372558-155.23894 72.411338-241.567795 72.411338-241.997795 0-438.861786-196.86524-438.861786-438.863036 0-241.991545 196.86524-438.858036 438.861786-438.858036 241.992795 0 438.858036 196.86649 438.858036 438.858036 0 15.273769-0.776251 30.651287-2.338753 45.713806-2.080003 20.097525 12.528765 38.061296 32.61754 40.131299 20.068774 2.085003 38.061296-12.528765 40.131299-32.61254 1.816252-17.548771 2.730003-35.448793 2.730003-53.232565C1024 101.68278 794.31722-128 512.003125-128L512.003125-128zM512.003125-128"  horiz-adv-x="1025" />

    
    <glyph glyph-name="wechat" unicode="&#58922;" d="M511.5830368-95.59387092999998M914.79296747 90.57799893000004c44.52992 40.6932032 71.5561184 94.15836053 71.5561184 152.70784747 0 101.90274133-81.8426656 188.37784533-195.38981227 219.00499093-6.77183147 163.28692373-172.98295467 293.98413653-377.0602272 293.98413654-208.37570453 0-377.2959968-136.25963307-377.2959968-304.34054187 0-77.18730453 35.6219712-147.66281173 94.32754667-201.311344 18.36930133-16.78658773-3.13595627-62.7311264-29.56181547-100.68896427 44.65762773 12.33534187 92.28748373 20.3613376 133.98598293 20.3613376 19.52086187 0 37.74826453-1.762816 53.74567894-5.65956586 39.0646464-11.03860907 81.0633152-17.0474624 124.80078613-17.0474624 8.49426027 0 16.9197536 0.2554176 25.2797568 0.70185173 44.89994667-80.1224192 144.84994773-135.8808736 260.94908373-135.8808736 33.17804267 0 65.03970453 4.55275733 94.67465174 12.93458987 12.14105067 2.961312 25.96086933 4.2973408 40.77070186 4.2973408 31.63134933 0 67.76633813-6.08962667 101.64186667-15.44946774-20.0404288 28.79338027-36.3609344 63.6425504-22.42213973 76.38175787L914.79514987 90.57799893000004zM413.90450347 203.1820672c-37.686048 0-74.58401387 5.03084587-109.6798688 14.94845653l-0.96818454 0.27178987-0.97800746 0.24013547c-19.71624533 4.81035733-42.2300736 7.24882773-66.92149654 7.24882773-14.18875413 0-28.3622272-0.7793504-42.22461546-2.11101227 2.94493867 32.5744288-9.53776 54.02292693-24.69578987 67.87985707-24.48621653 22.374112-43.5060672 47.53161813-56.52688853 74.772848-13.078672 27.3547488-19.7107872 56.123024-19.7107872 85.5014624 0 64.15011093 31.89768213 125.2101088 89.81845013 171.9329056 29.57273067 23.85531413 64.2210592 42.65467733 102.97352853 55.8763392 40.7248576 13.89840853 84.09666773 20.9409376 128.91475094 20.9409376s88.18989227-7.0490784 128.91475093-20.9409376c38.75137813-13.22166187 73.39970667-32.02102507 102.97352853-55.8763392 51.6968832-41.697408 82.63729707-94.81873387 88.6974528-151.36090347l0.00545814 0c-11.27001173 1.08606933-22.7343168 1.66566933-34.36671574 1.66566934-158.07706667 0-286.2233824-103.36866133-286.2233824-230.88407467 0-13.66154667 1.485568-27.05239573 4.30279787-40.06339307 0 0 0 0 0 0.00545814C416.7675776 203.21372159999999 415.33986133 203.1820672 413.90450347 203.1820672L413.90450347 203.1820672zM877.2848384 131.60411839999995c-8.9843552-8.2115552-20.8328768-23.3019104-22.98427627-46.92254613-6.20860373 0.3525632-12.4685088 0.54794667-18.72841386 0.54794666-19.8046592 0-37.953472-1.9778464-53.94542827-5.8811456l-0.97800747-0.24013546-0.9725504-0.27178987c-25.43366187-7.19316053-52.1989856-10.8344928-79.54827626-10.8344928-32.51766933 0-63.96564267 5.1028864-93.46196587 15.163488-27.9125184 9.52138667-52.8178816 23.0246624-74.03060907 40.1343424-40.71940053 32.84621867-63.14481493 75.45505173-63.14481493 119.98497173 0 44.52992 22.4254144 87.14421013 63.14481493 119.9904288 21.21272853 17.10968 46.11809067 30.61295573 74.03060907 40.1354336 29.495232 10.06060053 60.94320533 15.16239573 93.46196587 15.16239574 32.51657813 0 63.96455147-5.1017952 93.45978346-15.16239574 27.9125184-9.527936 52.8178816-23.02684587 74.0262432-40.1354336 40.71940053-32.84621867 63.14699733-75.4605088 63.14699734-119.9904288 0-20.26964907-4.58986987-40.1452576-13.64189974-59.07341973C907.98402453 165.11180266999997 894.58444373 147.41269867000005 877.2848384 131.60411839999995L877.2848384 131.60411839999995zM877.2848384 131.60411839999995M248.33410667 511.42699947c0.30344427 32.08760747 20.37770987 57.940416 45.10515413 57.940416 24.9053632 0 45.10297067-26.25230613 45.10297067-58.63135147 0-32.38559467-20.1921504-58.6379008-45.10297067-58.6379008-24.72744427 0-44.80170987 25.8571744-45.09969707 57.90548693L248.33410667 511.42699947zM248.33410667 511.42699947M482.94574507 511.42699947c0.30344427 32.08760747 20.37770987 57.940416 45.09969706 57.940416 24.91082027 0 45.10297067-26.25230613 45.10297067-58.63135147 0-32.38559467-20.1921504-58.6379008-45.10297067-58.6379008-24.72198613 0-44.79625173 25.8571744-45.09969706 57.90548693L482.94574507 511.42699947zM482.94574507 511.42699947M586.9343936 286.19266667c0.30344427 24.6608608 15.74745493 44.500448 34.7563904 44.500448 19.19995307 0 34.76184853-20.23472 34.76184853-45.19138454 0-24.96321387-15.5618944-45.19138453-34.76184853-45.19138453-19.01002773 0-34.45403733 19.8395872-34.7563904 44.4578784L586.9343936 286.19266667zM586.9343936 286.19266667M754.40077227 286.19266667c0.30344427 24.6608608 15.7518208 44.500448 34.76184853 44.500448 19.19995307 0 34.7673056-20.23472 34.7673056-45.19138454 0-24.96321387-15.56735253-45.19138453-34.7673056-45.19138453-19.01002773 0-34.4584032 19.8395872-34.76184853 44.4578784L754.40077227 286.19266667zM754.40077227 286.19266667"  horiz-adv-x="1024" />

    
    <glyph glyph-name="addressbook2-copy" unicode="&#58923;" d="M824.24375 834L199.8125 834C154.925 834 118.25 797.2125 118.25 752.2125L118.25 704.625l44.49375 0c35.1 0 63.50625-28.51875 63.50625-63.73125S197.84375 577.1625 162.74375 577.1625L118.25 577.1625l0-43.81875 44.49375 0c35.1 0 63.50625-28.51875 63.50625-63.73125S197.84375 405.9375 162.74375 405.88125L118.25 405.88125l0-43.7625 44.49375 0c35.1 0 63.50625-28.51875 63.50625-63.675 0-35.26875-28.40625-63.73125-63.50625-63.73125L118.25 234.71249999999998l0-43.81875 44.49375 0c35.1 0 63.50625-28.575 63.50625-63.73125S197.84375 63.375 162.74375 63.375L118.25 63.375l0-47.5875C118.25-29.212499999999977 154.925-66 199.8125-66l624.43125 0C869.075-66 905.75-29.212499999999977 905.75 15.84375L905.75 752.2125C905.75 797.2125 869.075 834 824.24375 834zM524.6 668.175c62.60625 0 113.4-50.90625 113.4-113.7375 0-62.83125-50.79375-113.79375-113.4-113.79375-62.60625 0-113.4 50.90625-113.4 113.7375C411.2 617.2125 461.9375 668.175 524.6 668.175zM706.56875 137.00625000000002l-0.3375 0c-3.43125-20.64375-83.25-37.125-181.63125-37.125-98.38125 0-178.3125 16.48125-181.63125 37.125L342.575 137.00625000000002l0 110.53125c0 80.83125 50.68125 149.2875 121.33125 174.76875l60.69375-81.1125 60.6375 81.1125c70.70625-25.48125 121.33125-93.99375 121.33125-174.76875L706.56875 137.00625000000002z"  horiz-adv-x="1024" />

    
    <glyph glyph-name="hide" unicode="&#59314;" d="M605.376 405.472l61.696-59.04C670.016 358.55999999999995 672 371.00800000000004 672 384c0 88.224-71.776 160-160 160-15.424 0-30.016-2.88-44.16-6.976l61.44-58.784C566.944 471.36 596.832 442.528 605.376 405.472zM556.256 231.00800000000004l-61.376 58.752c-37.792 6.848-67.84 35.744-76.32 72.96l-61.632 58.944C353.984 409.504 352 397.024 352 384c0-88.224 71.776-160 160-160C527.456 224 542.08 226.91200000000003 556.256 231.00800000000004zM178.944 759.136C166.144 771.328 145.888 770.88 133.696 758.112 121.472 745.344 121.92 725.088 134.688 712.864l736-704C876.896 2.94399999999996 884.832 0 892.8 0c8.448 0 16.832 3.328 23.136 9.888 12.224 12.768 11.744 33.024-0.992 45.248L178.944 759.136zM512 96c-169.28 0-335.328 113.568-414.88 283.936-0.16 0.608-0.352 1.152-0.544 1.728-0.064 0.544-0.224 0.992-0.288 1.312C96.256 383.328 96 383.77599999999995 96 384.224L96 384.64c0 0.736 0.448 1.472 0.544 2.208 0.128 0.448 0.352 0.832 0.48 1.28 29.728 64.128 72 120.256 122.144 165.312L172.864 597.696c-55.488-50.656-102.08-113.152-134.624-184.256-1.056-2.112-1.792-4.096-2.272-5.888-0.256-0.544-0.448-1.056-0.64-1.6-1.76-5.056-1.76-8.48-1.632-7.712-0.8-3.744-1.6-11.2-1.6-11.2-0.224-2.24-0.192-4.032 0.064-6.272 0 0 0.704-13.472 1.056-14.816l4.544-13.632C126.4 158.65599999999995 316.992 30.24000000000001 512 30.24000000000001c69.824 0 138.976 17.792 203.104 47.936l-49.856 48.576C616.128 106.88 564.224 96 512 96zM992 383.904c0 5.792-0.992 10.592-1.28 11.136-0.192 2.912-1.152 8.096-2.08 10.816-0.256 0.672-0.544 1.376-0.832 2.08-0.48 1.568-1.024 3.104-1.6 4.32C897.664 605.9200000000001 707.104 736 512 736c-69.76 0-138.88-16.864-203.008-47.072l49.856-47.648C407.968 661.12 459.808 672 512 672c169.76 0 336.192-114.048 414.752-283.68 0.096-0.32 0.16-0.608 0.256-0.8 0.064-0.288 0.16-0.608 0.256-0.864 0.16-1.28 0.32-2.496 0.48-3.168-0.16-0.672-0.256-1.28-0.384-1.952-0.032-0.16-0.096-0.32-0.128-0.48-0.128-0.416-0.288-0.864-0.416-1.376-29.696-64-71.872-120.032-121.952-165.056l46.336-44.32c55.328 50.496 101.728 112.672 134.016 183.36 1.376 2.496 2.24 4.832 2.848 6.912 0.256 0.608 0.48 1.184 0.672 1.76 1.536 4.48 1.856 8.352 1.728 8.352 0 0 0-0.032-0.032-0.032C991.04 373.72799999999995 992 378.336 992 383.904z"  horiz-adv-x="1024" />

    
    <glyph glyph-name="nothing" unicode="&#58946;" d="M156.662278 196.24182699999994h21.097186A10.444152 10.444152 0 0 0 187.994733 185.79767500000003c0-5.765172-4.490985-10.444152-10.235269-10.444152H156.662278v-21.097186A10.444152 10.444152 0 0 0 146.218126 144.021068a10.277045 10.277045 0 0 0-10.444152 10.235269V175.353523H114.676787A10.444152 10.444152 0 0 0 104.441518 185.79767500000003c0 5.765172 4.490985 10.444152 10.235269 10.444152H135.773974v21.097187A10.444152 10.444152 0 0 0 146.218126 227.57428300000004c5.765172 0 10.444152-4.490985 10.444152-10.235269v-21.097187z m1378.628042 83.553215v21.097186A10.277045 10.277045 0 0 1 1524.846168 311.12749699999995a10.444152 10.444152 0 0 1-10.444152-10.235269v-21.097186h-21.097186a10.277045 10.277045 0 0 1-10.235269-10.444152c0-5.598065 4.595427-10.444152 10.235269-10.444152h21.097186v-21.097187c0-5.744284 4.67898-10.235269 10.444152-10.235268a10.444152 10.444152 0 0 1 10.444152 10.235268V258.906738h21.097187c5.744284 0 10.235269 4.67898 10.235268 10.444152a10.444152 10.444152 0 0 1-10.235268 10.444152H1535.29032zM776.460024-64.86196900000004H250.596979A20.80475 20.80475 0 0 0 229.77134-43.97366499999998c0 11.530344 9.462402 20.888304 20.825639 20.888303h94.728457A83.010119 83.010119 0 0 0 334.212859 18.58680400000003v605.96969A83.49055 83.49055 0 0 0 417.849627 708.005267H480.430984V728.998012A83.49055 83.49055 0 0 0 564.067752 812.446785h501.152182A83.448773 83.448773 0 0 0 1148.856702 728.998012v-605.969689c0-15.185797-4.052331-29.410732-11.133466-41.672166h115.554096c11.551232 0 20.909192-9.274407 20.909192-20.888304 0-11.530344-9.295295-20.888304-20.888304-20.888304H1002.638576v-20.992745c0-15.185797-4.052331-29.410732-11.133466-41.672166h11.196131c11.488567 0 20.825639-9.274407 20.825639-20.888303 0-11.530344-9.462402-20.888304-20.825639-20.888304h-109.893365c9.545955-16.000441 7.478013-36.972297-6.41271-50.863019a41.672166 41.672166 0 0 0-59.072122 0L776.460024-64.86196900000004z m76.367638 41.776607h66.424806c22.977134 0 41.609501 18.59059 41.609501 41.881049V625.5382440000001c0 22.559368-18.047494 40.690416-40.314426 40.690416H416.303892c-22.266932 0-40.314426-18.214601-40.314426-40.690416v-606.742557c0-23.123352 18.799473-41.881049 41.588613-41.881049h317.084449l-10.736588 10.757477a41.693054 41.693054 0 0 0-10.861918 40.377091l-19.718558 19.739447A146.259902 146.259902 0 0 0 502.363703 268.306475a146.218126 146.218126 0 0 0 220.517822-190.981761l19.739447-19.739447a41.630389 41.630389 0 0 0 40.377091-10.841029L852.827662-23.085362000000032zM1002.638576 81.35615700000005h62.852906A41.797496 41.797496 0 0 1 1107.080095 123.13276399999995V728.8935710000001c0 23.14424-18.632367 41.776607-41.588613 41.776607H563.775316A41.797496 41.797496 0 0 1 522.207592 728.8935710000001v-20.888304h396.794216A83.448773 83.448773 0 0 0 1002.638576 624.5564939999999V81.35615700000005zM266.325872 849.001317h31.123572c8.773088 0 15.875111-6.955805 15.875111-15.666228 0-8.647758-7.102023-15.666228-15.875111-15.666228h-31.123572v-31.123572c0-8.773088-6.955805-15.875111-15.666228-15.875111a15.770669 15.770669 0 0 0-15.666228 15.875111V817.668861H203.869844A15.728893 15.728893 0 0 0 187.994733 833.335089c0 8.647758 7.102023 15.666228 15.875111 15.666228h31.123572V880.124889c0 8.773088 6.955805 15.875111 15.666228 15.875111 8.647758 0 15.666228-7.102023 15.666228-15.875111v-31.123572zM20.888304-43.97366499999998c0 11.530344 9.462402 20.888304 20.825638 20.888303h125.455152c11.488567 0 20.825639-9.274407 20.825639-20.888303 0-11.530344-9.462402-20.888304-20.825639-20.888304H41.713942A20.80475 20.80475 0 0 0 20.888304-43.97366499999998z m658.733544 135.021995a104.441518 104.441518 0 1 1-147.722083 147.722083 104.441518 104.441518 0 0 1 147.722083-147.722083zM459.542681 582.6754450000001a20.888304 20.888304 0 0 0 20.867415 20.888304H710.202325a20.888304 20.888304 0 1 0 0-41.776608H480.430984A20.825639 20.825639 0 0 0 459.542681 582.6754450000001z m0-104.441518c0 11.530344 9.295295 20.888304 20.742085 20.888303h334.505295c11.44679 0 20.742086-9.274407 20.742086-20.888303 0-11.530344-9.295295-20.888304-20.742086-20.888304H480.284766A20.762974 20.762974 0 0 0 459.542681 478.233927z m0-104.441519c0 11.530344 9.316183 20.888304 20.846527 20.888304h146.301679c11.509455 0 20.846527-9.274407 20.846527-20.888304 0-11.530344-9.316183-20.888304-20.846527-20.888303h-146.301679A20.80475 20.80475 0 0 0 459.542681 373.792408zM62.664911 499.12223a62.664911 62.664911 0 1 0 0 125.329822 62.664911 62.664911 0 0 0 0-125.329822z m0 31.332456a31.332456 31.332456 0 1 1 0 62.664911 31.332456 31.332456 0 0 1 0-62.664911zM1357.739739 624.452052a62.664911 62.664911 0 1 0 0 125.329822 62.664911 62.664911 0 0 0 0-125.329822z m0 31.332456a31.332456 31.332456 0 1 1 0 62.664911 31.332456 31.332456 0 0 1 0-62.664911z"  horiz-adv-x="1567" />

    
    <glyph glyph-name="self-employed" unicode="&#58917;" d="M612.2 215.29999999999995L562.8 240v-60.6l49.4 35.9zM410.1 215.29999999999995l49.4 24.7v-60.6l-49.4 35.9zM440.9 290.29999999999995H586v-257.2H440.9V290.29999999999995zM440.9 294.79999999999995H586v-45.1l-145.1-88V294.79999999999995zM513.4-56.200000000000045s50.3-0.2 65.1-0.2c6.1 9.8 25.2 201.3 24.7 204.3-0.3 1.9-60.6-18-60.6-18l-29.2-31v-155.1zM515.6-56.39999999999998s-53.7-0.2-68.5-0.2c-6.1 9.8-55.5 200.9-55 204 0.3 1.9 96.6-17.4 96.6-17.4l26.9-31.4v-155zM565-56.39999999999998h240.2L767 75.89999999999998s-84.9 61.3-152.5 81.9v57.5L565 195.10000000000002v-251.5zM459.5-56.39999999999998H219.2l38.4 132.3s84.9 61.3 152.5 81.9v57.5l49.4-20.2v-251.5zM300.7 524.6c-12-4.1-15.4-26.2-7.7-49.5 7.7-23.2 23.7-38.7 35.7-34.6 12 4.1 15.4 26.2 7.7 49.5-7.7 23.2-23.7 38.7-35.7 34.6zM726.1 523.6c12-4 15.4-25.9 7.7-48.8s-23.7-38.2-35.7-34.2c-12 4-15.4 25.9-7.7 48.8s23.7 38.3 35.7 34.2zM513.4 695.9c106.6 1.5 184.1-99.7 184.1-222.7 0-41.3-8.2-79-24.4-112.2-32-65.6-100.1-101.4-159.7-109.7V695.9zM677.3 740.8C723.9 620.7 731 547.6 709 507.4c-4.4-8-15.6-23.6-20.5-29.4-3.8 54.3-60.2 179.7-108.4 157.1-70.7-33.1-7.2 194.6 97.2 105.7zM513.4 695.9c-106.6 1.5-184.1-99.7-184.1-222.7 0-41.3 8.2-79 24.4-112.2 32.1-65.6 100.1-101.4 159.7-109.7V695.9zM298.2 555.9c1.6-0.2-102.2-14.8-74.1-42.4 39-27.1 112.1-36.2 144-37.1 285.2-7.8 337.1 60.6 349.4 71.5 13.5 12.3-419.3 8-419.3 8zM721.9 548c-12.2-11-62.1-68.7-347.2-60.9-13.1 0.4-33.5 0.8-55.8 3l192 65.7-5.7 0.9c110.5-0.5 223.8-2.4 216.7-8.7zM513.7 825.7c0-201.4 1.7-299.3 0.6-299.3 136.4 0 207.9 26.3 207.9 26.3l-4.1 76.2s-10 57.5-14.4 74.1c-14.4 54.8-47.3 82.5-47.3 82.5S544.5 825.7 513.7 825.7zM517.7 826.1c0-200.9-1.7-298.6-0.6-298.6-135.7 0-206.9 26.2-206.9 26.2l4.1 76s10 57.4 14.3 73.9c14.4 54.7 47 82.4 47 82.4S487 826.1 517.7 826.1zM517.9 826.1c13 0 23.6-6.5 23.6-14.6s-10.6-14.6-23.6-14.6c-13 0-23.6 6.5-23.6 14.6s10.6 14.6 23.6 14.6zM519 826.1c10.5 0 19.1-5 19.1-11.2 0-6.2-8.5-11.2-19.1-11.2s-19.1 5-19.1 11.2c0 6.2 8.6 11.2 19.1 11.2z"  horiz-adv-x="1024" />

    
    <glyph glyph-name="boss" unicode="&#58918;" d="M582.1 141.70000000000005l-140.3 0.7V305.29999999999995h140.3zM582.1 245l-140.3-82.7v143h140.3zM512.4 689.2c-0.6 0-1.1 0.1-1.7 0.1-103 0-193.3-100.3-193.3-224.1s123.2-224.1 193.3-224.1c0.6 0 1.1 0 1.7 0.1v448zM512.4 689.2c0.6 0 1.1 0.1 1.7 0.1 103 0 193.3-100.3 193.3-224.1S584.2 241.10000000000002 514.1 241.10000000000002c-0.6 0-1.1 0-1.7 0.1v448zM295.8 528.4c-3.3 58.2-6.6 140.3 16.6 191.6 23.3 51.3 146.3 106.1 199.4 106.1S668 774.8 691.3 744c13.7-18.1 34.7-117.4 33.2-201.9-1-59.4-10.3-82.3-19.9-99.2-4.8-8.5 6.6 109.5-99.7 201.9-16.6 10.3-32.1-6.4-53.2-10.3-35.3-6.5-66.5-6.8-93.1-6.8-31 0-88.1-39.8-103-78.7-26.4-68.7-19.9-119.8-19.9-119.8s-36.6 41-39.9 99.2zM294.587017 462.552385a25.7 51.3 17.355000000000004 1 1 49.06001 15.33217 25.7 51.3 17.355000000000004 1 1-49.06001-15.33217ZM512.1 172.5l-133.5-24s-85.5-37.6-109.5-75.3c-24-37.6-61.6-133.5-61.6-133.5H512V172.5zM512.4 172.5l133.5-24s85.5-37.6 109.5-75.3c24-37.6 61.6-133.5 61.6-133.5H512.4V172.5zM687.00445 428.102201a51.3 25.700000000000003 72.645 1 1 30.604681 97.929125 51.3 25.700000000000003 72.645 1 1-30.604681-97.929125ZM495.3 42.5l-56.9 126.6 71.8 3.4 75.3-3.4-58.2-126.6 10.2-102.7h-51.2zM432.5 220.60000000000002l78.7-47.9L381.1 70V172.70000000000005zM589.9 220.60000000000002l-78.7-47.9 130-102.7V172.70000000000005zM483.5 520.6h-112c-7.5 0-13.6-5.5-13.6-12.2v-63.9c0-6.7 6.1-12.2 13.6-12.2h112c7.5 0 13.6 5.5 13.6 12.2v63.9c0 6.7-6.1 12.2-13.6 12.2z m-0.8-67c0-6.7-6.1-12.2-13.6-12.2h-83.2c-7.5 0-13.6 5.5-13.6 12.2v45.7c0 6.7 6.1 12.2 13.6 12.2h83.2c7.5 0 13.6-5.5 13.6-12.2v-45.7zM656.7 520.6h-112c-7.5 0-13.6-5.5-13.6-12.2v-63.9c0-6.7 6.1-12.2 13.6-12.2h112c7.5 0 13.6 5.5 13.6 12.2v63.9c-0.1 6.7-6.1 12.2-13.6 12.2z m-0.9-67c0-6.7-6.1-12.2-13.6-12.2H559c-7.5 0-13.6 5.5-13.6 12.2v45.7c0 6.7 6.1 12.2 13.6 12.2h83.2c7.5 0 13.6-5.5 13.6-12.2v-45.7zM490.3 479.8h47.5v-13.6h-47.5z"  horiz-adv-x="1024" />

    
    <glyph glyph-name="staff" unicode="&#58919;" d="M268.7 17.299999999999955L510-57.10000000000002V829.5c-71.3-0.3-190.1-42.5-214-205.3-37.9-257.6-27.3-606.9-27.3-606.9zM751.3 17.299999999999955L510-57.10000000000002V829.5c71.3-0.3 190.1-42.5 214.1-205.3 37.8-257.6 27.2-606.9 27.2-606.9zM512.3-57.10000000000002H789s-13.8 190.7-202.7 220.4c-69.1 5-74 2-74 2v-222.4zM511.1-57.10000000000002H235.6S249.3 134.20000000000005 437.4 164c68.8 5 73.7 2 73.7 2v-223.1zM442 297.1h145.1v-257.2H442V297.1zM442 297.1h145.1v-257.2H442V297.1zM509-56.89999999999998s31.6-0.2 46.5-0.2c6.2 9.8 78.8 202.1 78.2 205.2-0.3 1.9-95.3-18-95.3-18L509 99v-155.9zM511-57.10000000000002s-31.6-0.2-46.5-0.2c-6.2 9.8-78.8 201.9-78.2 204.9 0.3 1.9 97.5-17.5 97.5-17.5l27.2-31.6v-155.6zM587.1 202.29999999999995l78.4-25 37.3-94.9-165.1 46.2 49.4 73.7zM442 301.6h145.1v-45.1l-145.1-88V301.6zM441.3 198.79999999999995l-78-24.9-37.1-94.7 164.3 46.2-49.2 73.4zM306.5 528.8c-12.1-4.1-15.6-26.4-7.8-49.7 7.8-23.3 23.9-38.9 36-34.8s15.6 26.4 7.8 49.7c-7.7 23.3-23.9 38.9-36 34.8zM720.1 527.8c12.1-4.1 15.6-26 7.8-49s-23.9-38.4-36-34.3-15.6 26-7.8 49 23.9 38.4 36 34.3zM720.1 527.8c12.1-4.1 15.6-26 7.8-49s-23.9-38.4-36-34.3-15.6 26-7.8 49 23.9 38.4 36 34.3zM512.3 698.6c-107.7 0-186-100.2-186-223.7 0-41.5 9.3-79.9 25.6-113.2 32.2-65.7 135.3-108.6 160.3-109.8 0.1 102.4 0.1 174.1 0.1 446.7zM511.3 698.6c107.7 0 186-100.2 186-223.7 0-41.5-9.3-79.9-25.6-113.2-32.3-65.7-135.4-108.5-160.4-109.8V698.6zM580.3 705.4s-89.9-124.8-249.5-185c-35.5 61.9-27.2 109.5-27.2 133.1s48.5 176 204.1 176c29.7 1.1 85-87.4 72.6-124.1z"  horiz-adv-x="1024" />

    
    <glyph glyph-name="professional" unicode="&#58920;" d="M506.1-56.60000000000002H842S825.3 140 596 170.70000000000005c-62.5 3.8-89.8 2.4-89.8 2.4v-0.2c-0.1-163.3-0.1-229.5-0.1-229.5zM507.5-56.60000000000002H173s16.7 197 245 227.6c62.2 3.8 89.5 2.4 89.5 2.4v-230zM438.5 276.70000000000005h145.1v-133H438.5v133zM438.5 281.20000000000005h145.1v-45.1l-145.1-88V281.20000000000005zM507.4 696.1v-443.9c60.1 3 132.8 43.5 167.1 108.4 17.6 33.3 19 71.6 19 113.2-0.1 122.8-79.7 222.3-186.1 222.3zM507.3 696.1v-443.9c-60.1 3-132.8 43.5-167.1 108.4-17.6 33.3-19 71.6-19 113.2 0.1 122.8 79.7 222.3 186.1 222.3zM335.8 496.6c3.4 50.5 26.8 108.5 105.6 140.7 19-4.3 58.6-37.5 129-4.5 47.9 22.4 108.1-77.3 116.7-118.3 6.9-32.8-6.5-29.4 15.6-22.3 5 3.9 38 54.2-13.4 256.8-103.8 88.3-187.5 80.4-187.5 80.4S370 815.1 309.7 713.2c-16.6-90-20.3-158.6-8.4-208.3 11.2 27.7 24.9 16.1 34.5-8.3zM712.9 526.4c12-4 15.4-25.9 7.7-48.7-7.7-22.9-23.7-38.2-35.6-34.1-12 4-15.4 25.9-7.7 48.7 7.6 22.8 23.6 38.1 35.6 34.1zM303.9 527.4c-12-4.1-15.4-26.2-7.7-49.4s23.7-38.7 35.6-34.6c12 4.1 15.4 26.2 7.7 49.4-7.6 23.2-23.6 38.7-35.6 34.6zM347.2 154.5c1.2-30.2 7.9-90.6 39.9-130.6 29.5-40.2 120.4-45.9 120.4-45.9v-34.4H274V121c24.6 14.2 38.5 20.4 73.2 33.5zM292.8 131.20000000000005v-187.8c63.9 0 7.6 0.2 169.6 0.2-30.3 7.6-70.1 23.1-96.5 54.9-23.8 28.9-36.2 94.5-40.8 148.4-5.6-2.3-21-6.3-32.3-15.7zM740.5 121.10000000000002v-177.4H507V-22s90.9 5.7 120.2 45.9c32.1 39.9 38.8 100.5 39.9 130.6 34.9-13.1 48.8-19.3 73.4-33.4zM690.3 147.10000000000002c-4.5-53.9-16.8-119.5-40.8-148.4-26.3-31.9-66.2-47.5-96.5-54.9 162.1 0 105.7-0.2 169.6-0.2V131.39999999999998c-11.3 9.2-26.6 13.2-32.3 15.7z"  horiz-adv-x="1024" />

    
    <glyph glyph-name="edit" unicode="&#58932;" d="M839.912-63.35500000000002H183.359c-65.93 0-119.381 53.435-119.381 119.38V712.58c0 65.927 53.451 119.38 119.38 119.38h432.724c8.24 0 14.933-6.676 14.933-14.915V787.2c0-8.256-6.693-14.932-14.933-14.932h-402.88c-49.45 0-89.535-40.084-89.535-89.533V85.87c0-49.45 40.085-89.535 89.535-89.535h596.865c49.45 0 89.533 40.085 89.533 89.535V488.75c0 8.24 6.693 14.932 14.932 14.932h29.847c8.237 0 14.913-6.694 14.913-14.932v-432.725c-0.001-65.945-53.452-119.38-119.38-119.38Zm52.608 710.41L768.484 764.1469999999999l37.664 37.815c29.123 29.223 77.008 29.997 106.986 1.699l15.503-14.627c29.964-28.3 30.654-74.941 1.533-104.181l-37.65-37.798Zm-590.979-351.8l124.02-117.094-182.516-62.447 58.496 179.542ZM862.39 616.79L455.676 208.40999999999997l-124.02 117.095L738.37 733.88 862.39 616.79Z"  horiz-adv-x="1024" />

    
    <glyph glyph-name="my-identification-fill" unicode="&#58883;" d="M1096.33333331 747.125l-44.375 0.75c-1 0-100.375 2-203 41.75-105.25 40.75-173.125 87.5-173.75 88L648.45833331 896 621.83333331 877.5c-0.625-0.375-68.5-47.25-173.75-88C345.45833331 749.75 246.08333331 747.875 245.08333331 747.875l-44.5-0.75v-430.5c0-216.125 291.375-444.625 448-444.625 156.75 0 448 228.5 448 444.625l-0.25 430.5zM458.45833331 123.5V540.625h-39.75V578.5h159.125v-189.625L777.95833331 578.5h157.75L458.45833331 123.5z m0 0"  horiz-adv-x="1293" />

    
    <glyph glyph-name="index-card" unicode="&#58891;" d="M1077.589333 383.658667H860.501333v-72.704h217.258667v72.704h-0.170667zM1188.864 856.746667h-1013.76C115.2 856.746667 66.56 807.936 66.56 747.52v-727.893333c0-60.245333 48.64-109.226667 108.544-109.226667h1013.589333c59.904 0 108.544 48.810667 108.544 109.226667V747.52c0.170667 60.416-48.469333 109.226667-108.373333 109.226667z m36.181333-764.245334c0-109.226667 0-109.226667-108.544-109.226666H247.637333c-108.544 0-108.544 0-108.544 109.226666V529.237333h1086.122667v-436.736z m0 517.973334H138.922667v64.170666c0 109.226667 0 109.226667 108.544 109.226667h868.864c108.544 0 108.544 0 108.544-109.226667v-64.170666z m-506.88-226.816h-506.88v-72.874667h506.88v72.874667z m-217.258666-145.578667H211.285333v-72.704h289.621334v72.704z m0 0"  horiz-adv-x="1365" />

    
    <glyph glyph-name="index-calculator" unicode="&#58892;" d="M174.58974 143.861166h902.410717l114.886284-159.624905c42.556249-59.547572 19.173695-110.677424-55.338712-110.677424H106.468564c-74.512407 0-97.894961 48.947481-53.15634 108.495052L174.58974 143.861166z m0 0M202.337038 786.569645c2.182372 59.547572 51.129852 108.495053 112.859796 108.495053h666.091033c59.547572 0 108.495053-48.947481 108.495053-108.495053v-706.620794c0-59.547572-48.947481-108.495053-108.495053-108.495053H289.476024c-59.547572 0-108.495053 48.947481-106.468565 108.495053L202.337038 786.569645z m0 0M274.667073 895.220582h666.091033c59.547572 0 108.495053-48.947481 108.495053-108.495053v-706.620795c0-59.547572-48.947481-108.495053-108.495053-108.495052H274.667073c-59.547572 0-108.495053 48.947481-108.495053 108.495052V786.569645c-2.182372 59.703456 46.765109 108.650936 108.495053 108.650937z m0 0M319.405693 503.484853c0-35.229715 28.526716-63.912315 63.912316-63.912315 35.229715 0 63.912315 28.526716 63.912315 63.912315 0 22.75902-12.158928 43.959202-31.956157 55.338712-19.797229 11.37951-44.115086 11.37951-63.912316 0s-31.956158-32.423809-31.956158-55.338712z m0 0M319.405693 303.486071c0-35.229715 28.526716-63.912315 63.912316-63.912315 35.229715 0 63.912315 28.526716 63.912315 63.912315 0 22.75902-12.158928 43.959202-31.956157 55.338712-19.797229 11.37951-44.115086 11.37951-63.912316 0s-31.956158-32.579692-31.956158-55.338712z m0 0M319.405693 105.513777c0-35.229715 28.526716-63.912315 63.912316-63.912316 35.229715 0 63.912315 28.526716 63.912315 63.912316 0 22.75902-12.158928 43.959202-31.956157 55.338712-19.797229 11.37951-44.115086 11.37951-63.912316 0s-31.956158-32.423809-31.956158-55.338712z m0 0M557.751865 503.484853c0-35.229715 28.526716-63.912315 63.912315-63.912315 35.229715 0 63.912315 28.526716 63.912316 63.912315 0 22.75902-12.158928 43.959202-31.956158 55.338712-19.797229 11.37951-44.115086 11.37951-63.912315 0s-31.956158-32.423809-31.956158-55.338712z m0 0M557.751865 303.486071c0-35.229715 28.526716-63.912315 63.912315-63.912315 35.229715 0 63.912315 28.526716 63.912316 63.912315 0 22.75902-12.158928 43.959202-31.956158 55.338712-19.797229 11.37951-44.115086 11.37951-63.912315 0s-31.956158-32.579692-31.956158-55.338712z m0 0M557.751865 105.513777c0-35.229715 28.526716-63.912315 63.912315-63.912316 35.229715 0 63.912315 28.526716 63.912316 63.912316 0 22.75902-12.158928 43.959202-31.956158 55.338712-19.797229 11.37951-44.115086 11.37951-63.912315 0s-31.956158-32.423809-31.956158-55.338712z m0 0M798.280408 503.484853c0-22.75902 12.158928-43.959202 31.956158-55.338712 19.797229-11.37951 44.115086-11.37951 63.912315 0s31.956158 32.423809 31.956158 55.338712c0 22.75902-12.158928 43.959202-31.956158 55.338712-19.797229 11.37951-44.115086 11.37951-63.912315 0s-31.956158-32.423809-31.956158-55.338712z m0 0M798.280408 303.486071c0-22.75902 12.158928-43.959202 31.956158-55.338712 19.797229-11.37951 44.115086-11.37951 63.912315 0s31.956158 32.423809 31.956158 55.338712c0 22.75902-12.158928 43.959202-31.956158 55.338712-19.797229 11.37951-44.115086 11.37951-63.912315 0s-31.956158-32.579692-31.956158-55.338712z m0 0M798.280408 105.513777c0-22.75902 12.158928-43.959202 31.956158-55.338712 19.797229-11.37951 44.115086-11.37951 63.912315 0s31.956158 32.423809 31.956158 55.338712-12.158928 43.959202-31.956158 55.338712c-19.797229 11.37951-44.115086 11.37951-63.912315 0s-31.956158-32.423809-31.956158-55.338712z m0 0M278.875932 716.421982c0 33.982646 27.747298 63.912315 63.912316 63.912315h517.222104c36.165018 0 63.912315-27.591414 63.912315-63.912315 0-33.982646-27.591414-63.912315-63.912315-63.912315H342.788248c-34.138529 0-63.912315 27.747298-63.912316 63.912315z m0 0M298.049627 516.267316c0-22.75902 12.158928-43.959202 31.956158-55.338712 19.797229-11.37951 44.115086-11.37951 63.912315 0s31.956158 32.423809 31.956158 55.338712c0 22.75902-12.158928 43.959202-31.956158 55.338712-19.797229 11.37951-44.115086 11.37951-63.912315 0s-31.956158-32.423809-31.956158-55.338712z m0 0M298.049627 316.268534c0-22.75902 12.158928-43.959202 31.956158-55.338712 19.797229-11.37951 44.115086-11.37951 63.912315 0s31.956158 32.423809 31.956158 55.338712c0 22.75902-12.158928 43.959202-31.956158 55.338712-19.797229 11.37951-44.115086 11.37951-63.912315 0-19.797229-11.535394-31.956158-32.579692-31.956158-55.338712z m0 0M298.049627 118.29624c0-22.75902 12.158928-43.959202 31.956158-55.338712 19.797229-11.37951 44.115086-11.37951 63.912315 0s31.956158 32.423809 31.956158 55.338712c0 22.75902-12.158928 43.959202-31.956158 55.338712-19.797229 11.37951-44.115086 11.37951-63.912315 0s-31.956158-32.579692-31.956158-55.338712z m0 0M538.57817 516.267316c0-35.229715 28.526716-63.912315 63.912316-63.912315 35.229715 0 63.912315 28.526716 63.912315 63.912315 0 22.75902-12.158928 43.959202-31.956158 55.338712-19.797229 11.37951-44.115086 11.37951-63.912315 0s-31.956158-32.423809-31.956158-55.338712z m0 0M538.57817 316.268534c0-35.229715 28.526716-63.912315 63.912316-63.912315 35.229715 0 63.912315 28.526716 63.912315 63.912315 0 22.75902-12.158928 43.959202-31.956158 55.338712-19.797229 11.37951-44.115086 11.37951-63.912315 0-19.797229-11.535394-31.956158-32.579692-31.956158-55.338712z m0 0M538.57817 118.29624c0-35.229715 28.526716-63.912315 63.912316-63.912316 35.229715 0 63.912315 28.526716 63.912315 63.912316 0 22.75902-12.158928 43.959202-31.956158 55.338712-19.797229 11.37951-44.115086 11.37951-63.912315 0s-31.956158-32.579692-31.956158-55.338712z m0 0M776.924342 516.267316c0-22.75902 12.158928-43.959202 31.956157-55.338712 19.797229-11.37951 44.115086-11.37951 63.912316 0s31.956158 32.423809 31.956157 55.338712c0 22.75902-12.158928 43.959202-31.956157 55.338712-19.797229 11.37951-44.115086 11.37951-63.912316 0s-31.956158-32.423809-31.956157-55.338712z m0 0M776.924342 316.268534c0-22.75902 12.158928-43.959202 31.956157-55.338712 19.797229-11.37951 44.115086-11.37951 63.912316 0s31.956158 32.423809 31.956157 55.338712c0 22.75902-12.158928 43.959202-31.956157 55.338712-19.797229 11.37951-44.115086 11.37951-63.912316 0-19.797229-11.535394-31.956158-32.579692-31.956157-55.338712z m0 0M776.924342 118.29624c0-22.75902 12.158928-43.959202 31.956157-55.338712 19.797229-11.37951 44.115086-11.37951 63.912316 0s31.956158 32.423809 31.956157 55.338712c0 22.75902-12.158928 43.959202-31.956157 55.338712-19.797229 11.37951-44.115086 11.37951-63.912316 0s-31.956158-32.579692-31.956157-55.338712z m0 0M306.62323 767.395951c-14.964835-10.600091-25.564926-29.773786-25.564926-51.129853 0-33.982646 27.591414-63.912315 63.912316-63.912315h515.039732c25.564926 0 48.947481 14.964835 57.521084 38.347389-8.573603-4.20886-16.991323-6.391232-27.591415-6.391231H361.961942c-31.956158 0-57.521084 25.564926-57.521083 57.521084v12.782463c0 2.182372 0 8.573603 2.182371 12.782463z m0 0"  horiz-adv-x="1328" />

    
    <glyph glyph-name="index-bank" unicode="&#58893;" d="M143.90476232 810.285714v-852.714285c0-47.285714 38.285714-85.571429 85.571428-85.571429h852.857143c47.285714 0 85.571429 38.285714 85.571429 85.571429V810.428571c0 47.285714-38.285714 85.571429-85.571429 85.571429H229.61904732C182.33333332 896 143.90476232 857.571429 143.90476232 810.285714z m73.142857-858.142857v552.857143c0 3.857143 3.142857 7 7 7h187.142857c3.857143 0 7-3.142857 7-7v-552.857143c0-3.857143-3.142857-7-7-7h-187.142857c-3.857143 0-7 3.142857-7 7z m274.285714 0v552.857143c0 3.857143 3.142857 7 7 7h315.142857c3.857143 0 7-3.142857 7-7v-552.857143c0-3.857143-3.142857-7-7-7H498.33333332c-3.857143 0-7 3.142857-7 7z m596.428571-7h-187.142857c-3.857143 0-7 3.142857-7 7v552.857143c0 3.857143 3.142857 7 7 7h187.142857c3.857143 0 7-3.142857 7-7v-552.857143c0-3.857143-3.142857-7-7-7z m-267.285714 640H224.04761932c-3.857143 0-7 3.142857-7 7V815.857143c0 3.857143 3.142857 7 7 7h863.714285c3.857143 0 7-3.142857 7-7v-223.714286c0-3.857143-3.142857-7-7-7H820.47619032z m0 0M699.47619032 329.14285700000005h59.142857c3.857143 0 7-3.142857 7-7v-95.714286c0-3.857143-3.142857-7-7-7h-59.142857c-3.857143 0-7 3.142857-7 7v95.714286c0 3.857143 3.142857 7 7 7z m-374.285714-23l-10-30.142857c-2.142857-6.428571-11.142857-6.428571-13.285714 0l-10 30.142857c-1 2.857143-3.571429 4.714286-6.571429 4.714286h-22.571429c-4.571429 0-7.857143-4.285714-6.714285-8.714286l14-55.714286c1.142857-4.428571-2.285714-8.714286-6.714286-8.714285H261.04761932c-3.857143 0-7-3.142857-7-7v-4.285715c0-3.857143 3.142857-7 7-7h22.571428c3.857143 0 7-3.142857 7-7v-4.285714c0-3.857143-3.142857-7-7-7H261.04761932c-3.857143 0-7-3.142857-7-7v-22.571428c0-3.857143 3.142857-7 7-7h22.571428c3.857143 0 7-3.142857 7-7v-4.285715c0-3.857143 3.142857-7 7-7h40.857143c3.857143 0 7 3.142857 7 7v4.285715c0 3.857143 3.142857 7 7 7h4.285714c3.857143 0 7 3.142857 7 7v22.571428c0 3.857143-3.142857 7-7 7h-4.285714c-3.857143 0-7 3.142857-7 7v4.285714c0 3.857143 3.142857 7 7 7h4.285714c3.857143 0 7 3.142857 7 7v4.285715c0 3.857143-3.142857 7-7 7-5.142857 0-8.571429 5.428571-6.285714 10.142857l26.428572 52.857143c2.285714 4.714286-1 10.142857-6.285715 10.142857h-38.571428c-3.285714 0-5.857143-1.857143-6.857143-4.714286z m605-75.428571v-4.285715c0-3.857143 3.142857-7 7-7h22.571428c3.857143 0 7-3.142857 7-7v-4.285714c0-3.857143-3.142857-7-7-7h-22.571428c-3.857143 0-7-3.142857-7-7v-22.571428c0-3.857143 3.142857-7 7-7h22.571428c3.857143 0 7-3.142857 7-7v-4.285715c0-3.857143 3.142857-7 7-7h40.857143c3.857143 0 7 3.142857 7 7v4.285715c0 3.857143 3.142857 7 7 7h4.285715c3.857143 0 7 3.142857 7 7v22.571428c0 3.857143-3.142857 7-7 7h-4.285715c-3.857143 0-7 3.142857-7 7v4.285714c0 3.857143 3.142857 7 7 7h4.285715c3.857143 0 7 3.142857 7 7v4.285715c0 3.857143-3.142857 7-7 7-5.142857 0-8.571429 5.428571-6.285715 10.142857l26.428572 52.857143c2.285714 4.714286-1 10.142857-6.285715 10.142857h-38.571428c-3 0-5.714286-1.857143-6.571429-4.714286l-10-30.142857c-2.142857-6.428571-11.142857-6.428571-13.285714 0l-10 30.142857c-1 2.857143-3.571429 4.714286-6.571429 4.714286h-22.571428c-4.571429 0-7.857143-4.285714-6.714286-8.714286l14-55.714286c1.142857-4.428571-2.285714-8.714286-6.714286-8.714285h-2.285714c-4.142857 0-7.285714-3.142857-7.285714-7zM297.19047632 749.714286h717.428571c3.857143 0 7-3.142857 7-7v-59.142857c0-3.857143-3.142857-7-7-7H297.19047632c-3.857143 0-7 3.142857-7 7V742.714286c0 3.857143 3.142857 7 7 7z m-7 0"  horiz-adv-x="1293" />

    
    <glyph glyph-name="index-evaluation1" unicode="&#58895;" d="M228.352 273.749333h852.821333l174.762667-235.349333c62.976-83.968 27.989333-151.381333-76.970667-151.381333H151.381333c-104.789333 0-142.165333 69.973333-81.578666 156.16l158.549333 230.570666z m0 0M186.368 774.826667c0 58.197333 46.592 104.789333 104.789333 104.789333h766.634667c58.197333 0 109.568-46.592 118.784-102.570667 0 0 9.386667-55.978667 9.386667-83.968v-384.512c0-58.197333-46.592-104.789333-104.789334-104.789333H291.157333c-58.197333 0-104.789333 46.592-104.789333 104.789333V774.826667z m0 0M239.957333 879.616h764.245334c58.197333 0 104.789333-46.592 104.789333-104.789333v-468.309334c0-58.197333-46.592-104.789333-104.789333-104.789333H239.957333c-58.197333 2.389333-104.789333 48.981333-104.789333 107.178667V774.826667c0 58.197333 46.592 104.789333 104.789333 104.789333z m0 0M685.056 721.237333c37.205333-4.608 65.194667-39.594667 65.194667-76.970666V653.653333c0-37.205333-32.597333-67.584-69.973334-67.584H377.514667c-37.205333 0-72.192 30.378667-76.970667 67.584l-2.389333 13.994667c18.602667 27.989333 65.194667 48.981333 102.570666 51.2 0 0 158.378667 4.608 249.344 4.608h20.992m-368.128-223.573333c18.602667 23.381333 55.978667 41.984 83.968 41.984h491.690667c27.989333 0 55.978667-23.381333 60.586667-51.2l2.389333-13.994667c6.997333-34.986667-18.602667-65.194667-53.589333-65.194667H375.125333c-34.986667 0-72.192 27.989333-81.578666 62.976l-2.389334 11.605334 11.776 13.824z m0 0M340.138667 723.456h305.322666c27.989333 0 51.2-23.381333 51.2-51.2 0-27.989333-23.381333-51.2-51.2-51.2H340.138667c-27.989333 0-51.2 23.381333-51.2 51.2 0 27.989333 23.210667 51.2 51.2 51.2z m0-181.76h510.293333c27.989333 0 51.2-23.381333 51.2-51.2 0-27.989333-23.381333-51.2-51.2-51.2h-510.293333c-27.989333 0-51.2 23.381333-51.2 51.2 0 27.989333 23.210667 51.2 51.2 51.2z m0 0M973.994667-52.394667c128.170667 0 232.96 100.181333 232.96 221.354667H973.994667V390.314667c-128.170667 0-232.96-100.181333-232.96-221.354667-0.170667-121.173333 104.789333-221.354667 232.96-221.354667z m0 0M927.402667-52.394667c128.170667 0 232.96 100.181333 232.96 221.354667H927.402667V390.314667c-128.170667 0-232.96-100.181333-232.96-221.354667-0.170667-121.173333 104.789333-221.354667 232.96-221.354667z m0 0M1323.52 200.533333c0 165.376-163.157333 335.530667-349.525333 298.325334 0-253.952 53.589333-298.325333 53.589333-298.325334h295.936z m0 0M1276.928 200.533333c0 167.765333-135.168 302.933333-302.933333 302.933334v-302.933334h302.933333z m0 0"  horiz-adv-x="1365" />

    
    <glyph glyph-name="index-extreme" unicode="&#58896;" d="M583.92137855 238.969339L408.79001454 274.83094199000004l118.386497 256.21603401L145.94894555 158.17271401000005l210.5609-28.51645501-139.70182901-257.656259 367.11336201 366.969339z m127.891983 657.030661c-256.648101 0-465.19268599-208.544585-465.192686-465.19268601h77.48410601C324.24880454 644.82475399 497.93994355 818.515893 711.81336156 818.515893 925.83080155 818.515893 1099.52194054 644.82475399 1099.52194054 430.951336c0-214.01744-173.691139-387.564557-387.564557-387.564557-63.081857-0.144023-125.29957799 15.410408-181.036287 44.935021l-50.26385299-60.777496c68.122644-39.174121 147.190999-61.641632 231.30013999-61.641632 256.648101 0 465.19268599 208.400563 465.19268701 465.192687-0.144023 256.360056-208.544585 464.904641-465.336709 464.904641zM863.90112555 405.74739801c16.562588 0 30.24472599-13.538115 30.24472499-30.24472601s-13.68213799-30.24472599-30.24472499-30.244725h-105.85653999v-110.897328c0-16.562588-13.538115-30.24472599-30.24472602-30.244726s-30.24472599 13.538115-30.24472599 30.244726v110.897328H591.69859356c-16.562588 0-30.24472599 13.538115-30.24472602 30.244725s13.538115 30.24472599 30.24472602 30.24472599h105.85653999v50.40787602H591.69859356c-16.562588 0-30.24472599 13.538115-30.24472602 30.24472599 0 16.562588 13.538115 30.24472599 30.24472602 30.24472601h86.41350199l-78.924332 78.924332c-11.809845 11.809845-11.809845 30.96483801 0 42.77468299s30.96483801 11.809845 42.77468399 0l94.190717-94.190717 94.19071702 94.190717c11.809845 11.809845 30.96483801 11.809845 42.77468399 0s11.809845-30.96483801 0-42.77468299l-78.924332-78.924332H863.90112555c16.562588 0 30.24472599-13.538115 30.24472499-30.24472601 0-16.562588-13.538115-30.24472599-30.24472499-30.24472599h-105.85653999v-50.407876H863.90112555z"  horiz-adv-x="1323" />

    
    <glyph glyph-name="my-application-recor" unicode="&#58901;" d="M1014.18808664 803.877295h-54.720331c5.39673-9.412901 8.157847-20.080855 8.032343-30.874315v-62.376156c0.251011-33.509927-26.230617-60.995597-59.740544-61.99964H406.86772464c-33.635432 0.753032-60.493576 28.238702-60.493576 61.99964v62.376156c-0.125505 10.918965 2.886623 21.586919 8.534364 30.874315h-54.720331C231.53675864 803.877295 175.93789064 748.403933 175.68688064 679.752509v-621.62797c0.627527-68.274907 56.226394-123.371754 124.501301-123.371754h419.689872c-76.934776 117.347497-55.222352 273.35064 50.829665 364.969542 105.926511 91.744407 263.435718 90.865869 368.483691-1.882581V679.752509c-0.125505 33.007906-13.303567 64.635252-36.773066 87.853742-23.469499 23.343994-55.222352 36.39655-88.230257 36.271044zM643.57080464 180.36674400000004H346.37414864v96.388105h297.07115l0.125506-96.388105zM784.51330564 388.831121H346.37414864v96.764621h438.139157V388.831121zM543.66855064 709.873792h248.500581c34.388464 0 62.250651 27.736681 62.376157 61.99964v61.99964c0 16.566705-6.651783 32.380379-18.323781 44.052376s-27.611176 18.198275-44.177881 18.07277h-248.500582c-16.566705 0.125505-32.380379-6.400773-44.177881-18.07277-11.671997-11.671997-18.32378-27.48567-18.32378-44.052376v-61.99964c0.502021-34.388464 28.364208-61.99964 62.627167-61.99964z m408.519896-403.123166c-119.983109 0-217.249751-97.266642-217.375257-217.249751s97.141137-217.375256 217.124246-217.500762 217.375256 97.015631 217.626267 216.99874c0.251011 57.732458-22.590962 113.205821-63.380199 153.995058-40.914742 40.914742-96.262599 63.88222-153.995057 63.756715zM1076.31323164 27.37572899999998H890.18880564V200.322094h61.999641v-104.043931h124.124785V27.37572899999998z"  horiz-adv-x="1358" />

    
    <glyph glyph-name="loan-problem" unicode="&#58898;" d="M765.269333 549.888c0 9.898667-7.850667 17.408-17.408 17.408H506.709333c-9.898667 0-17.408-7.850667-17.408-17.408 0-9.898667 7.850667-17.408 17.408-17.408h241.152c9.386667 0 17.408 7.850667 17.408 17.408z m-258.901333-43.690667c-9.898667 0-17.408-7.850667-17.408-17.408 0-9.898667 7.850667-17.408 17.408-17.408H658.773333c9.898667 0 17.408 7.850667 17.408 17.408 0 9.898667-7.850667 17.408-17.408 17.408h-152.405333z m322.730667-63.658666l-55.637334-55.466667-55.466666 55.466667c-6.997333 6.997333-18.090667 6.997333-24.746667 0-6.997333-6.997333-6.997333-18.090667 0-24.746667l45.056-45.056h-23.893333c-9.898667 0-17.408-7.850667-17.408-17.408 0-9.898667 7.850667-17.408 17.408-17.408H756.053333v-13.994667h-41.642666c-9.898667 0-17.408-7.850667-17.408-17.408 0-9.898667 7.850667-17.408 17.408-17.408H756.053333v-30.549333c0-9.898667 7.850667-17.408 17.408-17.408 9.898667 0 17.408 7.850667 17.408 17.408v30.549333h41.642667c9.898667 0 17.408 7.850667 17.408 17.408 0 9.898667-7.850667 17.408-17.408 17.408h-41.642667V337.92h41.642667c9.898667 0 17.408 7.850667 17.408 17.408 0 9.898667-7.850667 17.408-17.408 17.408h-23.893333l45.056 45.056c6.997333 6.997333 6.997333 18.090667 0 24.746667-6.485333 6.997333-17.749333 6.997333-24.576 0z m109.909333 150.698666c0 26.282667-21.674667 47.616-47.957333 47.616H472.064c-26.282667 0-47.957333-21.674667-47.957333-47.616v-449.365333c0-9.898667 7.850667-17.408 17.408-17.408h2.56c4.608 0 8.533333 1.536 12.117333 4.778667l46.250667 43.52 46.250666-43.52c3.242667-3.242667 7.509333-4.778667 12.117334-4.778667h4.949333c4.608 0 8.533333 1.536 12.117333 4.778667l46.250667 43.52 46.250667-43.52c3.242667-3.242667 7.509333-4.778667 12.117333-4.778667h4.949333c4.608 0 8.533333 1.536 12.117334 4.778667l46.762666 43.52 46.250667-43.52c3.584-3.242667 7.509333-4.778667 12.117333-4.778667 4.778667 0 9.557333 1.877333 12.8 5.632 6.656 6.997333 6.314667 18.090667-1.024 24.746667l-58.368 54.442666c-6.656 6.314667-17.066667 6.314667-23.893333 0L685.568 165.546667 636.586667 211.285333c-6.656 6.314667-17.066667 6.314667-23.893334 0L563.712 165.546667l-49.152 45.397333c-6.656 6.314667-17.066667 6.314667-23.893333 0l-31.402667-29.184v411.306667c0 6.997333 5.632 12.8 12.8 12.8h418.986667c6.997333 0 12.8-5.632 12.8-12.8v-408.576l0.341333-36.522667c0-9.557333 7.850667-17.408 17.408-17.408 9.898667 0 17.408 7.850667 17.408 17.749333V593.237333zM1153.877333 603.306667l-51.029333-16.213334C1133.226667 525.994667 1150.293333 457.045333 1150.293333 384c0-253.610667-205.482667-459.093333-459.093333-459.093333S232.106667 130.389333 232.106667 384 437.589333 843.093333 691.2 843.093333c58.368 0 114.176-10.922667 165.376-30.72l17.92 49.834667C817.664 884.053333 755.882667 896 691.2 896 408.405333 896 179.2 666.794667 179.2 384s229.205333-512 512-512 512 229.205333 512 512c0 78.506667-17.749333 152.917333-49.322667 219.306667zM1024.512 709.12h-37.546667c0 14.848 1.536 25.6 4.608 32.085333 3.754667 8.192 11.946667 16.725333 24.405334 25.6 11.776 8.192 17.578667 17.578667 17.578666 28.16 0 10.24-3.072 17.749333-9.045333 22.528-4.778667 3.754667-10.922667 5.632-18.432 5.632-8.704 0-15.701333-2.389333-20.992-7.338666-5.290667-4.778667-8.533333-13.312-9.898667-25.429334l-40.106666-0.170666c0 22.528 7.509333 39.936 22.528 51.882666 12.288 9.898667 27.648 14.848 45.909333 14.848 22.698667 0 40.789333-5.632 54.101333-16.725333 12.458667-10.410667 18.773333-25.088 18.773334-43.861333 0-11.093333-2.901333-20.650667-8.874667-29.013334-4.949333-6.826667-13.482667-14.677333-25.6-23.381333-6.656-4.778667-11.093333-9.045333-13.141333-12.8-2.901333-5.290667-4.266667-12.458667-4.266667-22.016z m2.901333-19.114667v-40.106666h-41.642666v40.106666H1027.413333z"  horiz-adv-x="1365" />

    
    <glyph glyph-name="registration-problem" unicode="&#58900;" d="M826.538667 316.586667c13.994667 0 25.258667 11.264 25.258666 25.258666 0 8.192-3.754667 15.36-9.728 19.626667v0.341333c-19.285333 15.018667-40.789333 27.477333-64.170666 36.181334 29.696 25.6 48.64 62.976 48.64 105.130666 0 76.629333-62.122667 138.752-138.752 138.752s-138.752-62.122667-138.752-138.752c0-42.154667 18.773333-79.872 48.64-105.130666-94.549333-36.181333-161.792-127.829333-161.792-235.178667 0-13.994667 11.264-25.258667 25.258666-25.258667s25.258667 11.264 25.258667 25.258667c0 111.274667 90.453333 201.728 201.728 201.728 45.568 0 87.552-15.36 121.344-40.789333 4.266667-4.608 10.581333-7.168 17.066667-7.168z m-138.410667 98.645333c-48.64 0-88.234667 39.594667-88.234667 88.234667 0 48.64 39.594667 88.234667 88.234667 88.234666s88.234667-39.594667 88.234667-88.234666c0-48.64-39.594667-88.234667-88.234667-88.234667zM922.965333 232.106667h-37.717333v37.717333c0 10.24-8.362667 18.944-18.944 18.944-10.581333 0-18.944-8.362667-18.944-18.944V232.106667h-37.717333c-10.581333 0-18.944-8.362667-18.944-18.944 0-10.24 8.362667-18.944 18.944-18.944h37.717333v-37.717334c0-10.24 8.362667-18.944 18.944-18.944 10.24 0 18.944 8.362667 18.944 18.944v37.717334h37.717333c10.24 0 18.944 8.362667 18.944 18.944-0.341333 10.581333-8.704 18.944-18.944 18.944zM1153.877333 603.306667l-51.029333-16.213334C1133.226667 525.994667 1150.293333 457.045333 1150.293333 384c0-253.610667-205.482667-459.093333-459.093333-459.093333S232.106667 130.389333 232.106667 384 437.589333 843.093333 691.2 843.093333c58.368 0 114.176-10.922667 165.376-30.72l17.92 49.834667C817.664 884.053333 755.882667 896 691.2 896 408.405333 896 179.2 666.794667 179.2 384s229.205333-512 512-512 512 229.205333 512 512c0 78.506667-17.749333 152.917333-49.322667 219.306667zM1024.512 709.12h-37.546667c0 14.848 1.536 25.6 4.608 32.085333 3.754667 8.192 11.946667 16.725333 24.405334 25.6 11.776 8.192 17.578667 17.578667 17.578666 28.16 0 10.24-3.072 17.749333-9.045333 22.528-4.778667 3.754667-10.922667 5.632-18.432 5.632-8.704 0-15.701333-2.389333-20.992-7.338666-5.290667-4.778667-8.533333-13.312-9.898667-25.429334l-40.106666-0.170666c0 22.528 7.509333 39.936 22.528 51.882666 12.288 9.898667 27.648 14.848 45.909333 14.848 22.698667 0 40.789333-5.632 54.101333-16.725333 12.458667-10.410667 18.773333-25.088 18.773334-43.861333 0-11.093333-2.901333-20.650667-8.874667-29.013334-4.949333-6.826667-13.482667-14.677333-25.6-23.381333-6.656-4.778667-11.093333-9.045333-13.141333-12.8-2.901333-5.290667-4.266667-12.458667-4.266667-22.016z m2.901333-19.114667v-40.106666h-41.642666v40.106666H1027.413333z"  horiz-adv-x="1365" />

    
    <glyph glyph-name="application-problem" unicode="&#58902;" d="M941.909333 404.650667c-4.949333 9.898667-4.949333 19.456-19.456 19.456-9.898667 0-19.456-9.898667-19.456-19.456v-185.344c0-29.354667-24.405333-53.589333-48.981333-53.589334H512.341333c-29.354667 0-53.589333 29.354667-53.589333 58.538667V551.082667c0 29.354667 24.405333 53.589333 48.981333 53.589333H698.026667c9.898667 0 19.456 4.949333 19.456 19.456 0 9.898667-4.949333 19.456-14.506667 19.456H507.733333c-48.981333 0-87.893333-39.082667-87.893333-92.842667v-331.605333c0-48.981333 39.082667-92.842667 87.893333-92.842667h346.453334c48.981333 0 87.893333 39.082667 87.893333 92.842667V404.650667zM629.589333 429.056v-77.994667c0-9.898667 4.949333-14.506667 19.456-19.456H727.04c4.949333 0 9.898667 4.949333 14.506667 4.949334L931.84 531.968c4.949333 4.949333 4.949333 19.456 0 24.405333l-77.994667 77.653334c-4.949333 4.949333-19.456 4.949333-24.405333 0L639.317333 448.512c-9.728-9.557333-9.728-14.506667-9.728-19.456z m209.92 180.736l63.488-63.488-185.514666-185.344-58.538667 4.949333-4.949333 58.538667 185.514666 185.344zM1153.877333 603.306667l-51.029333-16.213334C1133.226667 525.994667 1150.293333 457.045333 1150.293333 384c0-253.610667-205.482667-459.093333-459.093333-459.093333S232.106667 130.389333 232.106667 384 437.589333 843.093333 691.2 843.093333c58.368 0 114.176-10.922667 165.376-30.72l17.92 49.834667C817.664 884.053333 755.882667 896 691.2 896 408.405333 896 179.2 666.794667 179.2 384s229.205333-512 512-512 512 229.205333 512 512c0 78.506667-17.749333 152.917333-49.322667 219.306667zM1024.512 709.12h-37.546667c0 14.848 1.536 25.6 4.608 32.085333 3.754667 8.192 11.946667 16.725333 24.405334 25.6 11.776 8.192 17.578667 17.578667 17.578666 28.16 0 10.24-3.072 17.749333-9.045333 22.528-4.778667 3.754667-10.922667 5.632-18.432 5.632-8.704 0-15.701333-2.389333-20.992-7.338666-5.290667-4.778667-8.533333-13.312-9.898667-25.429334l-40.106666-0.170666c0 22.528 7.509333 39.936 22.528 51.882666 12.288 9.898667 27.648 14.848 45.909333 14.848 22.698667 0 40.789333-5.632 54.101333-16.725333 12.458667-10.410667 18.773333-25.088 18.773334-43.861333 0-11.093333-2.901333-20.650667-8.874667-29.013334-4.949333-6.826667-13.482667-14.677333-25.6-23.381333-6.656-4.778667-11.093333-9.045333-13.141333-12.8-2.901333-5.290667-4.266667-12.458667-4.266667-22.016z m2.901333-19.114667v-40.106666h-41.642666v40.106666H1027.413333z"  horiz-adv-x="1365" />

    
    <glyph glyph-name="repayment-problem" unicode="&#58903;" d="M1153.877333 603.306667l-51.029333-16.213334C1133.226667 525.994667 1150.293333 457.045333 1150.293333 384c0-253.610667-205.482667-459.093333-459.093333-459.093333S232.106667 130.389333 232.106667 384 437.589333 843.093333 691.2 843.093333c58.368 0 114.176-10.922667 165.376-30.72l17.92 49.834667C817.664 884.053333 755.882667 896 691.2 896 408.405333 896 179.2 666.794667 179.2 384s229.205333-512 512-512 512 229.205333 512 512c0 78.506667-17.749333 152.917333-49.322667 219.306667zM946.005333 580.949333c-7.850667 8.362667-25.258667 19.456-37.034666 19.456H475.306667c-25.258667 0-61.44-31.744-61.44-57.173333v-331.093333c1.877333-26.282667 34.816-54.954667 61.44-55.125334h314.709333c11.946667 0 21.674667 9.728 21.674667 21.674667v1.706667c0 11.946667-9.728 21.674667-21.674667 21.674666H484.181333c-14.848 0-27.136 12.117333-27.136 27.136V430.421333h458.752V343.04c0.853333-10.752 9.728-19.114667 20.650667-19.114667h1.536c11.434667 0 20.650667 9.386667 20.650667 20.650667V543.402667c1.024 11.264-4.437333 29.013333-12.629334 37.546666z m-488.96-107.690666v52.736c0 14.848 12.117333 27.136 27.136 27.136h404.48c14.848 0 27.136-12.117333 27.136-27.136v-52.736H457.045333zM686.933333 392.192H507.221333c-9.386667 0-17.066667-7.68-17.066666-17.066667v-1.365333c0-9.386667 7.68-17.066667 17.066666-17.066667h179.712c9.386667 0 17.066667 7.68 17.066667 17.066667v1.365333c0 9.386667-7.68 17.066667-17.066667 17.066667z m-103.765333-66.56h-75.946667c-9.386667 0-17.066667-7.68-17.066666-17.066667v-1.365333c0-9.386667 7.68-17.066667 17.066666-17.066667h75.946667c9.386667 0 17.066667 7.68 17.066667 17.066667v1.365333c0 9.386667-7.68 17.066667-17.066667 17.066667zM943.445333 282.794667h-88.746666c-2.218667 0.341333-4.608-0.341333-6.144-1.706667-1.877333-1.365333-2.901333-3.584-3.242667-5.802667v-85.504c0-5.12 4.266667-9.386667 9.386667-9.386666s9.386667 4.266667 9.386666 9.386666V259.413333c37.717333-20.821333 58.197333-48.981333 58.197334-88.405333 0.341333-5.12 4.949333-9.386667 10.410666-9.386667 4.949333 0 9.045333 3.925333 9.386667 8.704 0 39.594667-15.530667 74.752-48.469333 93.525334h49.664c4.949333 0.341333 8.362667 4.608 8.362666 9.386666 0.341333 4.949333-3.242667 9.216-8.192 9.557334zM1024.512 709.12h-37.546667c0 14.848 1.536 25.6 4.608 32.085333 3.754667 8.192 11.946667 16.725333 24.405334 25.6 11.776 8.192 17.578667 17.578667 17.578666 28.16 0 10.24-3.072 17.749333-9.045333 22.528-4.778667 3.754667-10.922667 5.632-18.432 5.632-8.704 0-15.701333-2.389333-20.992-7.338666-5.290667-4.778667-8.533333-13.312-9.898667-25.429334l-40.106666-0.170666c0 22.528 7.509333 39.936 22.528 51.882666 12.288 9.898667 27.648 14.848 45.909333 14.848 22.698667 0 40.789333-5.632 54.101333-16.725333 12.458667-10.410667 18.773333-25.088 18.773334-43.861333 0-11.093333-2.901333-20.650667-8.874667-29.013334-4.949333-6.826667-13.482667-14.677333-25.6-23.381333-6.656-4.778667-11.093333-9.045333-13.141333-12.8-2.901333-5.290667-4.266667-12.458667-4.266667-22.016z m2.901333-19.114667v-40.106666h-41.642666v40.106666H1027.413333z"  horiz-adv-x="1365" />

    
    <glyph glyph-name="arrow" unicode="&#59293;" d="M406.848 8.672000010000033L756.99200001 362.048c0.512 0.512 0.672 1.216 1.15199999 1.76 0.128 0.128 0.31999999 0.16 0.448 0.288 12.41600001 12.576 12.352 32.832-0.19200001 45.28L405.056 759.488c-12.576 12.448-32.8 12.352-45.248-0.192-6.17600001-6.24-9.28-14.4-9.28-22.528 0-8.224 3.168-16.48 9.472-22.72l330.816-327.84-329.408-332.48c-6.17600001-6.24-9.28-14.368-9.28-22.528 0-8.25600001 3.168-16.48 9.472-22.72C374.144-3.967999999999961 394.4-3.8719999999999573 406.848 8.672000010000033z"  horiz-adv-x="1024" />

    
    <glyph glyph-name="caution" unicode="&#58905;" d="M649.98003113 864.68347157c-122.35687406 0-244.71374813-46.53572906-338.32010063-140.14208156C125.11584394 537.86358031 125.11584394 234.44527625 311.65993051 47.901189690000024c93.60635156-93.60635156 215.96322563-140.14208062 338.32010062-140.14208063s244.71374813 46.53572906 338.32009969 140.14208063c186.54408656 186.54408656 186.54408656 490.09611375 0 676.64020032-93.60635156 93.60635156-215.96322563 140.14208062-338.32009969 140.14208156z m0-47.87296314c56.03008781 0 110.72294156-10.96531594 161.93898844-31.42498967 53.35562063-21.93063094 101.09485969-53.35562063 142.14793126-94.94358563 41.72168813-41.05307156 73.14667781-88.79231062 95.07730874-142.14793126 20.45967375-51.21604688 31.42498969-105.90890063 31.42498969-161.93898844 0-56.03008781-10.96531594-110.72294156-31.42498969-161.93898843-21.93063094-53.35562063-53.35562063-101.09485969-95.07730874-142.14793219-41.05307156-41.72168813-88.79231062-73.14667781-142.14793126-94.94358469-51.21604688-20.45967375-105.90890063-31.42498969-161.93898844-31.42498968-56.03008781 0-110.72294156 10.96531594-161.93898938 31.42498968-53.35562063 21.93063094-101.09485969 53.35562063-142.14793124 94.94358469-41.72168813 41.05307156-73.14667781 88.79231062-94.94358563 142.14793219-20.59339781 51.08232375-31.55871281 105.7751775-31.55871281 161.80526532 0 56.03008781 10.96531594 110.72294156 31.42498968 161.93898844 21.93063094 53.35562063 53.35562063 101.09485969 94.94358563 142.14793124 41.05307156 41.72168813 88.79231062 73.14667781 142.14793126 94.94358562 51.34977 20.59339781 106.04262469 31.55871281 162.07271249 31.55871281z m0 0M655.73013488 170.39178688000004c14.17467656 0 26.34350156-4.94776406 36.50647781-14.84329219 10.16297531-9.89552906 15.24446344-21.93063094 15.2444625-36.10530751 0-14.44212281-5.08148812-26.47722563-15.2444625-36.23903062-10.16297531-9.761805-22.33180125-14.57584594-36.50647781-14.57584594-14.17467656 0-26.34350156 4.81404094-36.37275375 14.57584594-10.16297531 9.761805-15.24446344 21.79690781-15.2444625 36.23903062 0 14.17467656 5.08148812 26.20977844 15.2444625 36.10530751 10.02925219 9.89552906 22.19807812 14.84329313 36.37275375 14.84329219z m39.18094501 528.20727187l-8.8257422-443.69410781h-63.25114875l-8.82574219 443.69410781h80.90263314z m0 0M649.84630708-92.10716781999997C385.60894801-92.10716781999997 170.58178614 122.91999406000002 170.58178614 387.15735312 170.58178614 651.3947121900001 385.60894801 866.42187501 649.84630708 866.42187501 914.08366613 866.42187501 1129.11082895 651.3947121900001 1129.11082895 387.15735312c0-264.23735906-215.02716281-479.26452188-479.26452187-479.26452094z m0 889.79523564c-226.39364812 0-410.53071469-184.13706656-410.5307147-410.5307147 0-226.259925 184.13706656-410.53071469 410.5307147-410.53071469 226.259925 0 410.53071469 184.13706656 410.53071468 410.53071469s-184.27078969 410.53071469-410.53071468 410.5307147z m0 0"  horiz-adv-x="1293" />

    
    <glyph glyph-name="emoji" unicode="&#58906;" d="M507.75297645 421.76785687c0-23.4375-23.4375-38.97321469-38.97321469-38.97321375-23.4375 0-38.97321469 15.66964313-38.97321375 38.97321375v70.17857157c0 23.4375 15.53571469 38.97321469 38.97321375 38.97321469s38.97321469-15.53571469 38.97321469-38.97321469v-70.17857156z m358.92857156 0c0-23.4375-15.53571469-38.97321469-38.97321469-38.97321375s-38.97321469 15.66964313-38.97321469 38.97321375v70.17857157c0 23.4375 15.66964313 38.97321469 38.97321469 38.97321469 23.4375 0 38.97321469-15.53571469 38.97321469-38.97321469v-70.17857156zM492.21726176 164.35714312000005c-7.76785688 0-15.66964313 0-23.4375 7.76785688-15.66964313 15.66964313-15.66964313 38.97321469 0 54.64285688 38.97321469 46.875 109.28571469 78.08035687 179.46428625 78.08035781 70.17857156 0 140.49107156-31.20535687 187.23214219-78.08035781 15.66964313-15.53571469 15.66964313-38.97321469 0-54.64285688-15.53571469-15.53571469-38.97321469-15.53571469-54.64285688 0-70.17857156 78.08035687-195 70.17857156-265.3125 0-7.76785688-7.76785688-15.53571469-7.76785688-23.30357156-7.76785687z m0 1e-8M648.24404801-96C383.6011902-96 168.24404801 119.35714312000005 168.24404801 384 168.24404801 648.64285688 383.6011902 864 648.24404801 864 912.88690488 864 1128.24404801 648.64285688 1128.24404801 384c0-264.64285688-215.35714312-480-480-480z m0 891.16071469c-226.74107156 0-411.16071469-184.41964312-411.16071469-411.16071469 0-226.60714312 184.41964312-411.16071469 411.16071469-411.16071469 226.60714312 0 411.16071469 184.41964312 411.16071375 411.16071469s-184.55357156 411.16071469-411.16071375 411.16071469z m0 0"  horiz-adv-x="1293" />

    
    <glyph glyph-name="waitting" unicode="&#58907;" d="M681.83226764 659.159082c18.741883 0 34.017801 15.275918 34.017801 34.017802V859.671556c0 18.741883-15.275918 34.017801-34.017801 34.017801s-34.017801-15.275918-34.017801-34.017801V693.176884c0-18.741883 15.275918-34.017801 34.017801-34.017802z m-241.847311-82.412937c13.222013-13.222013 34.788016-13.222013 48.010029 0s13.222013 34.788016 0 48.010029l-117.714429 117.714429c-13.222013 13.222013-34.788016 13.222013-48.010029 0s-13.222013-34.788016 0-48.010029l117.714429-117.714429z m-30.680206-195.249342c0 18.741883-15.275918 34.017801-34.017801 34.017801H208.79227764c-18.741883 0-34.017801-15.275918-34.017801-34.017801s15.275918-34.017801 34.017801-34.017801h166.494672c18.741883 0 34.017801 15.275918 34.017801 34.017801z m82.412938-193.837282c-13.222013 13.222013-34.788016 13.222013-48.010029 0L325.99323064 69.94509200000005c-13.222013-13.222013-13.222013-34.788016 0-48.010029 13.222013-13.222013 34.788016-13.222013 48.010029 0l117.714429 117.714429c13.222013 13.222013 13.222013 34.788016 0 48.010029z m195.249342-78.690234c-18.741883 0-34.017801-15.275918-34.017802-34.017801v-166.494673c0-18.741883 15.275918-34.017801 34.017802-34.017801s34.017801 15.275918 34.017801 34.017801V74.95148600000005c0 18.741883-15.275918 34.017801-34.017801 34.017801zM928.81434164 191.38222399999995c-13.222013 13.222013-34.788016 13.222013-48.010029 0s-13.222013-34.788016 0-48.010029l117.714429-117.714429c13.222013-13.222013 34.788016-13.222013 48.010029 0s13.222013 34.788016 0 48.010029L928.81434164 191.38222399999995z m231.192679 229.138774H993.51234764c-18.741883 0-34.017801-15.275918-34.017801-34.017801s15.275918-34.017801 34.017801-34.017801h166.494673c18.741883 0 34.017801 15.275918 34.017801 34.017801s-15.275918 34.017801-34.017801 34.017801zM877.08160964 580.340479c13.222013-13.222013 34.788016-13.222013 48.010029 0l117.714429 117.714429c13.222013 13.222013 13.222013 34.788016 0 48.010029-13.222013 13.222013-34.788016 13.222013-48.010029 0l-117.714429-117.714429c-13.222013-13.093644-13.222013-34.788016 0-48.010029z"  horiz-adv-x="1362" />

    
    <glyph glyph-name="loan" unicode="&#58909;" d="M511.2 832.1C264.3 832.1 64.1 631.9 64.1 385s200.2-447.1 447.1-447.1S958.3 138.10000000000002 958.3 385 758.1 832.1 511.2 832.1z m0-835.8c-214.7 0-388.7 174.1-388.7 388.7s174.1 388.7 388.7 388.7S900 599.7 900 385 725.9-3.7000000000000455 511.2-3.7000000000000455zM800.2 412.5L538.7 674c-15.1 15.1-39.8 15.1-54.9 0L222.3 412.5c-15.1-15.1-15.1-39.8 0-54.9l261.5-261.5c15.1-15.1 39.8-15.1 54.9 0l261.5 261.5c15 15.1 15 39.8 0 54.9z m-289-263.3L275.4 385l235.8 235.8L747 385 511.2 149.20000000000005z"  horiz-adv-x="1024" />

    
    <glyph glyph-name="loan-fill" unicode="&#58908;" d="M512.3 831C265.4 831 65.2 630.8 65.2 383.9s200.1-447.1 447.1-447.1 447.1 200.1 447.1 447.1S759.2 831 512.3 831z m287.5-453.5L518.7 96.4c-3.5-3.5-9.2-3.5-12.7 0L224.8 377.5c-3.5 3.5-3.5 9.2 0 12.7l281.1 281.1c3.5 3.5 9.2 3.5 12.7 0l281.1-281.1c3.6-3.5 3.6-9.2 0.1-12.7z"  horiz-adv-x="1024" />

    
    </font>
</defs>
</svg>
