<?xml version="1.0" standalone="no"?>
<!DOCTYPE svg PUBLIC "-//W3C//DTD SVG 1.1//EN" "http://www.w3.org/Graphics/SVG/1.1/DTD/svg11.dtd" >
<!--
2013-9-30: Created.
-->
<svg>
<metadata>
Created by iconfont
</metadata>
<defs>

<font id="iconfont" horiz-adv-x="1024" >
  <font-face
    font-family="iconfont"
    font-weight="500"
    font-stretch="normal"
    units-per-em="1024"
    ascent="896"
    descent="-128"
  />
    <missing-glyph />
    
    <glyph glyph-name="outdent" unicode="&#59451;" d="M408 454h480c4.4 0 8 3.6 8 8v56c0 4.4-3.6 8-8 8H408c-4.4 0-8-3.6-8-8v-56c0-4.4 3.6-8 8-8z m-8-204c0-4.4 3.6-8 8-8h480c4.4 0 8 3.6 8 8v56c0 4.4-3.6 8-8 8H408c-4.4 0-8-3.6-8-8v-56z m504 486H120c-4.4 0-8-3.6-8-8v-56c0-4.4 3.6-8 8-8h784c4.4 0 8 3.6 8 8v56c0 4.4-3.6 8-8 8z m0-632H120c-4.4 0-8-3.6-8-8v-56c0-4.4 3.6-8 8-8h784c4.4 0 8 3.6 8 8v56c0 4.4-3.6 8-8 8zM115.4 377.1L271.7 254c5.8-4.6 14.4-0.5 14.4 6.9V507.1c0 7.4-8.5 11.5-14.4 6.9L115.4 390.9c-4.5-3.5-4.5-10.3 0-13.8z"  horiz-adv-x="1024" />

    
    <glyph glyph-name="kabao" unicode="&#59443;" d="M232.876 418.576c-10.986 24.126-12.016 51.124-2.898 76.02L281.7 636.7c9.494 25.618 28.274 45.874 52.942 57.2 24.668 11.328 52.272 12.372 77.722 2.936L764.222 568.77c52.602-18.792 80.192-77.062 61.338-129.83l-56.5 20.188c7.72 21.612-3.58 45.478-25.192 53.2L391.68 640.514c-10.59 3.924-21.896 3.496-31.998-1.142a41.348 41.348 0 0 1-21.66-23.36L286.34 474.014c-3.68-10.05-3.268-20.888 1.142-30.574l-54.606-24.864zM904-128H120C53.832-128 0-74.168 0-8V776C0 842.168 53.832 896 120 896h784c66.168 0 120-53.832 120-120v-784c0-66.168-53.832-120-120-120zM120 892C56.038 892 4 839.962 4 776v-784c0-63.962 52.038-116 116-116h784c63.962 0 116 52.038 116 116V776c0 63.962-52.038 116-116 116H120zM752 64H272c-44.112 0-80 35.888-80 80V404c0 44.112 35.888 80 80 80h480c44.112 0 80-35.888 80-80v-260c0-44.112-35.888-80-80-80zM272 424c-11.028 0-20-8.972-20-20v-260c0-11.028 8.972-20 20-20h480c11.028 0 20 8.972 20 20V404c0 11.028-8.972 20-20 20H272zM710 324H314c-16.568 0-30 13.432-30 30s13.432 30 30 30h396c16.568 0 30-13.432 30-30s-13.432-30-30-30z"  horiz-adv-x="1024" />

    
    <glyph glyph-name="lishixinxi" unicode="&#59444;" d="M904-128H120C53.832-128 0-74.168 0-8V776C0 842.168 53.832 896 120 896h784c66.168 0 120-53.832 120-120v-784c0-66.168-53.832-120-120-120zM120 892C56.038 892 4 839.962 4 776v-784c0-63.962 52.038-116 116-116h784c63.962 0 116 52.038 116 116V776c0 63.962-52.038 116-116 116H120zM722 124.002c11.028 0 20 8.97 20 19.998V558c0 11.028-8.972 20-20 20H608.442l-8.75 49.57c-1.68 9.52-9.96 16.43-19.692 16.43H444c-9.732 0-18.014-6.91-19.694-16.43l-8.75-49.57H302c-11.028 0-20-8.972-20-20v-414c0-11.028 8.972-19.998 20-19.998h420m0-60H302c-44.184 0-80 35.814-80 79.998V558c0 44.182 35.818 80 80 80h63.218c6.62 37.506 39.374 66 78.782 66h136c39.406 0 72.16-28.494 78.78-66H722c44.182 0 80-35.818 80-80v-414c0-44.184-35.818-79.998-80-79.998zM648.3 414.01l0.1-60-272.13-0.462-0.1 60zM580 502H444c-44.112 0-80 35.888-80 80v42c0 44.112 35.888 80 80 80h136c44.112 0 80-35.888 80-80v-42c0-44.112-35.888-80-80-80zM444 644c-11.028 0-20-8.972-20-20v-42c0-11.028 8.972-20 20-20h136c11.028 0 20 8.972 20 20v42c0 11.028-8.972 20-20 20H444z"  horiz-adv-x="1024" />

    
    <glyph glyph-name="wenjianshenbaochenggong" unicode="&#59445;" d="M904-128H120C53.832-128 0-74.168 0-8V776C0 842.168 53.832 896 120 896h784c66.168 0 120-53.832 120-120v-784c0-66.168-53.832-120-120-120zM120 892C56.038 892 4 839.962 4 776v-784c0-63.962 52.038-116 116-116h784c63.962 0 116 52.038 116 116V776c0 63.962-52.038 116-116 116H120zM772.4 454h-86.8c-32.864 0-59.6 26.736-59.6 59.6V601c0 56.794 46.206 103 103 103s103-46.206 103-103v-87.4c0-32.864-26.736-59.6-59.6-59.6zM686 514h86v87c0 23.71-19.29 43-43 43s-43-19.29-43-43v-87zM655.998 64c-3.588 0-7.192 0.642-10.638 1.952l-213.008 80.804-199.204-80.566a29.998 29.998 0 0 0-41.248 27.78c-0.04 36.364-0.032 40.614-0.018 47.15 0.008 4.258 0.018 9.49 0.018 25.282V600.584c-0.326 8.166-0.244 45.64 26.234 73.978 12.522 13.402 35.73 29.412 75.188 29.578 75.386 0.31 432.484-0.136 436.084-0.14l-0.078-60c-3.598 0.006-360.534 0.46-435.754 0.14-14.692-0.06-25.028-3.508-31.596-10.54-10.462-11.196-10.148-30.212-10.136-30.396 0.04-0.636 0.06-1.274 0.06-1.912V166.4c0-15.864-0.01-21.12-0.018-25.396l-0.004-2.52 168.876 68.3a29.976 29.976 0 0 0 21.888 0.238l183.224-69.506c-0.016 8.868-0.026 18.636-0.026 28.882 0.004 3.118 0.296 310.222 0.296 435.6h60c0-125.406-0.292-432.542-0.296-435.628 0-39.46 0.158-71.9 0.16-72.222A30.006 30.006 0 0 0 655.998 64zM415.768 312.434a29.904 29.904 0 0 0-21.004 8.582c-11.828 11.602-12.012 30.596-0.412 42.424l120.5 122.862c11.602 11.828 30.598 12.014 42.424 0.412 11.83-11.602 12.014-30.596 0.412-42.424l-120.5-122.86a29.904 29.904 0 0 0-21.42-8.996zM415.778 312.454a29.89 29.89 0 0 0-20.608 8.204l-54.052 51.112c-12.038 11.384-12.57 30.372-1.186 42.41 11.382 12.04 30.372 12.57 42.41 1.186l54.052-51.114c12.038-11.382 12.57-30.372 1.186-42.408a29.908 29.908 0 0 0-21.802-9.39z"  horiz-adv-x="1024" />

    
    <glyph glyph-name="shujutongji" unicode="&#59446;" d="M904-128H120C53.832-128 0-74.168 0-8V776C0 842.168 53.832 896 120 896h784c66.168 0 120-53.832 120-120v-784c0-66.168-53.832-120-120-120zM120 892C56.038 892 4 839.962 4 776v-784c0-63.962 52.038-116 116-116h784c63.962 0 116 52.038 116 116V776c0 63.962-52.038 116-116 116H120zM697.67 354.292c-85.85 0-185.688 0.06-185.688 0.06-16.562 0.01-29.982 13.44-29.982 30v289.71c0 16.568 13.432 30 30 30 176.288 0 319.708-143.42 319.708-319.708 0-16.542-13.39-29.962-29.934-30-21.71-0.048-61.16-0.062-104.104-0.062zM542 414.334c52.992-0.026 163.682-0.072 227.99-0.024-13.764 119.3-108.7 214.244-227.99 228.03v-228.006zM454.602 64.112c-144.744 0-262.5 117.758-262.5 262.502h60c0-111.66 90.84-202.502 202.5-202.502 111.658 0 202.5 90.842 202.5 202.502h60c0-144.744-117.758-262.502-262.5-262.502zM252.102 326.11h-60c0 144.744 117.756 262.502 262.5 262.502v-60c-111.66 0-202.5-90.844-202.5-202.502z"  horiz-adv-x="1024" />

    
    <glyph glyph-name="zhexiantu" unicode="&#59447;" d="M904-128H120C53.832-128 0-74.168 0-8V776C0 842.168 53.832 896 120 896h784c66.168 0 120-53.832 120-120v-784c0-66.168-53.832-120-120-120zM120 892C56.038 892 4 839.962 4 776v-784c0-63.962 52.038-116 116-116h784c63.962 0 116 52.038 116 116V776c0 63.962-52.038 116-116 116H120zM758 64c-16.568 0-30 13.432-30 30V478c0 16.568 13.432 30 30 30s30-13.432 30-30v-384c0-16.568-13.432-30-30-30z m-164 0c-16.568 0-30 13.432-30 30V296c0 16.568 13.432 30 30 30s30-13.432 30-30v-202c0-16.568-13.432-30-30-30z m-164 0c-16.568 0-30 13.432-30 30V368c0 16.568 13.432 30 30 30s30-13.432 30-30v-274c0-16.568-13.432-30-30-30z m-164 0c-16.568 0-30 13.432-30 30V268c0 16.568 13.432 30 30 30s30-13.432 30-30v-174c0-16.568-13.432-30-30-30zM222.008 363.156c-9.382 0-18.622 4.386-24.472 12.614-9.602 13.502-6.442 32.234 7.06 41.836l251.8 179.09c12.404 8.822 29.45 6.958 39.652-4.34l57.286-63.436 157.58 114.976H639.09c-16.568 0-30 13.432-30 30s13.432 30 30 30h163.838a30 30 0 0 0 17.682-54.236L566.866 464.52c-12.41-9.054-29.652-7.27-39.948 4.128l-57.504 63.678L239.372 368.71a29.868 29.868 0 0 0-17.364-5.554z"  horiz-adv-x="1024" />

    
    <glyph glyph-name="shujutu-tiaoxing" unicode="&#59448;" d="M904-128H120c-66.2 0-120 53.8-120 120V776C0 842.2 53.8 896 120 896h784c66.2 0 120-53.8 120-120v-784c0-66.2-53.8-120-120-120zM120 892C56 892 4 840 4 776v-784c0-64 52-116 116-116h784c64 0 116 52 116 116V776c0 64-52 116-116 116H120zM513 64c-53.4 0-97 43.6-97 97v126c0 53.4 43.6 97 97 97s97-43.6 97-97v-126c0-53.4-43.6-97-97-97z m0 260c-20.4 0-37-16.6-37-37v-126c0-20.4 16.6-37 37-37s37 16.6 37 37v126c0 20.4-16.6 37-37 37zM289 64c-53.4 0-97 43.6-97 97v264c0 53.4 43.6 97 97 97s97-43.6 97-97v-264c0-53.4-43.6-97-97-97z m0 398c-20.4 0-37-16.6-37-37v-264c0-20.4 16.6-37 37-37s37 16.6 37 37v264c0 20.4-16.6 37-37 37zM735 64c-53.4 0-97 43.6-97 97v446c0 53.4 43.6 97 97 97s97-43.6 97-97v-446c0-53.4-43.6-97-97-97z m0 580c-20.4 0-37-16.6-37-37v-446c0-20.4 16.6-37 37-37s37 16.6 37 37v446c0 20.4-16.6 37-37 37z"  horiz-adv-x="1024" />

    
    <glyph glyph-name="zhengmingxinxi" unicode="&#59449;" d="M904-128H120C53.832-128 0-74.168 0-8V776C0 842.168 53.832 896 120 896h784c66.168 0 120-53.832 120-120v-784c0-66.168-53.832-120-120-120zM120 892C56.038 892 4 839.962 4 776v-784c0-63.962 52.038-116 116-116h784c63.962 0 116 52.038 116 116V776c0 63.962-52.038 116-116 116H120zM793.334 384H654.666C633.346 384 616 401.346 616 422.666V596c0 59.552 48.45 108 108 108s108-48.448 108-108v-173.334c0-21.32-17.346-38.666-38.666-38.666zM676 444h96V596c0 26.468-21.534 48-48 48s-48-21.532-48-48v-152zM320.028 64.002c-70.512-0.008-127.94 57.342-128.028 127.906 0 0.028-0.03 90.036-0.03 122.686h60c0-32.646 0.03-122.638 0.03-122.638 0.046-37.474 30.572-67.954 68.064-67.954h157.208v-60H320.028zM572.894 64C516.772 64 454 114.71 454 182.578V314.346h60v-131.768C514 151.032 546.382 124 572.894 124v-60zM366 384.004h-60v217.5c0 56.518 45.054 102.5 100.432 102.5h315.23v-60h-315.23c-22.294 0-40.432-19.066-40.432-42.5v-217.5zM575.468 64.004H406.43v60h169.038c22.294 0 40.432 19.064 40.432 42.5l0.146 373.278 60-0.024-0.146-373.266c0-56.508-45.052-102.488-100.432-102.488zM514 314h-60c0 5.514-4.486 10-10 10H339.216v60H444c38.598 0 70-31.402 70-70zM252 314h-60c0 38.598 31.402 70 70 70h104.784v-60H262c-5.514 0-10-4.486-10-10zM477.228 580H588v-60H477.228z m-65.306-96H588v-60H411.922z"  horiz-adv-x="1024" />

    
    <glyph glyph-name="wenjian1" unicode="&#59450;" d="M904-128H120C53.832-128 0-74.168 0-8V776C0 842.168 53.832 896 120 896h784c66.168 0 120-53.832 120-120v-784c0-66.168-53.832-120-120-120zM120 892C56.038 892 4 839.962 4 776v-784c0-63.962 52.038-116 116-116h784c63.962 0 116 52.038 116 116V776c0 63.962-52.038 116-116 116H120zM638.844 64.046h-344.35C237.978 64.046 192 110.026 192 166.54V604.048h60V166.54c0-23.43 19.062-42.492 42.494-42.492h344.35c23.432 0 42.494 19.062 42.494 42.492V601.506h60V166.54c0-56.514-45.978-102.494-102.494-102.494zM252 164.046h-60V601.554c0 56.516 45.978 102.494 102.494 102.494h344.348v-60H294.494c-23.432 0-42.494-19.062-42.494-42.494v-437.508zM752.258 544.054h-0.02l-136.342 0.056 0.024 60 136.22-0.056c10.976 0.114 19.838 9.114 19.768 20.104-0.068 10.874-8.972 19.778-19.848 19.848H631.882v60H752.25c43.732-0.276 79.38-35.924 79.658-79.468 0.278-44.1-35.372-80.202-79.468-80.482l-0.182-0.002zM637.836 544.054H303.34c-16.532 0-29.948 13.374-30 29.904s13.278 29.99 29.81 30.094c10.876 0.07 19.78 8.974 19.85 19.85 0.034 5.336-2.012 10.366-5.762 14.162s-8.752 5.906-14.088 5.94l0.38 59.998c21.362-0.134 41.392-8.582 56.402-23.782 15.01-15.2 23.202-35.336 23.066-56.698a79.206 79.206 0 0 0-2.546-19.468h257.386v-60zM602 324H470c-16.568 0-30 13.432-30 30s13.432 30 30 30h132c16.568 0 30-13.432 30-30s-13.432-30-30-30z m0-100H330c-16.568 0-30 13.432-30 30s13.432 30 30 30h272c16.568 0 30-13.432 30-30s-13.432-30-30-30z m0 208H470c-16.568 0-30 13.432-30 30s13.432 30 30 30h132c16.568 0 30-13.432 30-30s-13.432-30-30-30z"  horiz-adv-x="1024" />

    
    <glyph glyph-name="zichanbaoguanli" unicode="&#59441;" d="M880 712H712v64c0 4.4-3.6 8-8 8h-56c-4.4 0-8-3.6-8-8v-64H384v64c0 4.4-3.6 8-8 8h-56c-4.4 0-8-3.6-8-8v-64H144c-17.7 0-32-14.3-32-32v-664c0-17.7 14.3-32 32-32h736c17.7 0 32 14.3 32 32V680c0 17.7-14.3 32-32 32z m-40-656H184V640h128v-48c0-4.4 3.6-8 8-8h56c4.4 0 8 3.6 8 8v48h256v-48c0-4.4 3.6-8 8-8h56c4.4 0 8 3.6 8 8v48h128v-584zM639.5 482h-45c-3 0-5.8-1.7-7.1-4.4L514 332.2h-2.8l-73.4 145.4c-1.4 2.7-4.1 4.4-7.1 4.4h-46c-1.3 0-2.7-0.3-3.8-1-3.9-2.1-5.3-7-3.2-10.9l89.3-164h-48.6c-4.4 0-8-3.6-8-8v-21.3c0-4.4 3.6-8 8-8h65.1v-33.7h-65.1c-4.4 0-8-3.6-8-8v-21.3c0-4.4 3.6-8 8-8h65.1V144c0-4.4 3.6-8 8-8h41.3c4.4 0 8 3.6 8 8v53.8h65.4c4.4 0 8 3.6 8 8v21.3c0 4.4-3.6 8-8 8h-65.4v33.7h65.4c4.4 0 8 3.6 8 8v21.3c0 4.4-3.6 8-8 8h-49.1l89.3 164.1c0.6 1.2 1 2.5 1 3.8 0.1 4.4-3.4 8-7.9 8z"  horiz-adv-x="1024" />

    
    <glyph glyph-name="dingdanguanli" unicode="&#59442;" d="M832 784H724V824c0 4.4-3.6 8-8 8h-56c-4.4 0-8-3.6-8-8v-40H500V824c0 4.4-3.6 8-8 8h-56c-4.4 0-8-3.6-8-8v-40H320c-17.7 0-32-14.3-32-32v-120h-96c-17.7 0-32-14.3-32-32v-632c0-17.7 14.3-32 32-32h512c17.7 0 32 14.3 32 32v96h96c17.7 0 32 14.3 32 32V752c0 17.7-14.3 32-32 32zM664 8H232V560h218v-174c0-22.1 17.9-40 40-40h174v-338z m0 402H514V560h0.2L664 410.2v-0.2z m128-274h-56V440L544 632H360v80h68v-32c0-4.4 3.6-8 8-8h56c4.4 0 8 3.6 8 8v32h152v-32c0-4.4 3.6-8 8-8h56c4.4 0 8 3.6 8 8v32h68v-576z"  horiz-adv-x="1024" />

    
    <glyph glyph-name="chanpinxinxi" unicode="&#59438;" d="M168.107 274.56l120.746-57.963L512.128 108.46l215.317 104.32 128.768 61.674a64 64 0 0 0-29.952-84.97L540.032 50.859a64 64 0 0 0-55.808 0l-286.23 138.624a64 64 0 0 0-29.887 85.077z m687.829 133.93a64 64 0 0 0-29.675-85.546L540.011 184.32a64 64 0 0 0-55.808 0L197.995 322.944a64 64 0 0 0-31.168 82.176L483.84 255.595l28.288-13.696 286.23 138.624-0.15 0.064 57.728 27.882zM540.032 710.209L826.24 571.605a64 64 0 0 0 0-115.2L540.032 317.781a64 64 0 0 0-55.808 0l-286.23 138.624a64 64 0 0 0 0 115.2l286.23 138.582a64 64 0 0 0 55.808 0z m-27.904-57.6l-286.23-138.603 286.23-138.624 286.23 138.624-286.23 138.603z"  horiz-adv-x="1024" />

    
    <glyph glyph-name="user" unicode="&#59439;" d="M512 768c212.075 0 384-171.925 384-384S724.075 0 512 0 128 171.925 128 384s171.925 384 384 384z m0-64c-176.725 0-320-143.275-320-320 0-91.243 38.187-173.547 99.413-231.85l108.523 129.386a195.861 195.861 0 0 1 60.01-28.053l-117.93-140.651A318.507 318.507 0 0 1 512 64a318.507 318.507 0 0 1 161.237 43.52l-120.17 143.296a195.541 195.541 0 0 1 62.442 25.088L725.1 145.28A319.21 319.21 0 0 1 832 384c0 176.725-143.275 320-320 320z m0-106.667a154.07 154.07 0 0 0 76.373-287.914l-0.64-0.363-0.704-0.405a153.685 153.685 0 0 0-4.928-2.624l5.632 3.029A153.685 153.685 0 0 0 512 289.195a153.643 153.643 0 0 0-58.07 11.306l-0.213 0.086a153.173 153.173 0 0 0-5.653 2.453l5.888-2.56a153.195 153.195 0 0 0-20.97 10.475A154.07 154.07 0 0 0 512 597.333z m0-64a90.07 90.07 0 1 1 0-180.138 90.07 90.07 0 0 1 0 180.138z"  horiz-adv-x="1024" />

    
    <glyph glyph-name="xiaoshouwangluo" unicode="&#59440;" d="M512 746.667l6.89-0.064h0.875l6.187-0.214c39.168-1.472 76.715-9.173 111.723-22.101l-4.118 1.493c2.56-0.896 5.12-1.834 7.659-2.794l-3.541 1.301a367.701 367.701 0 0 0 20.16-8.15l-1.067 0.47a295.749 295.749 0 0 0 7.488-3.35l-6.4 2.902a488.108 488.108 0 0 0 8.277-3.776l-1.877 0.853a284.18 284.18 0 0 0 8.917-4.266l-7.04 3.413a361.813 361.813 0 0 0 32.918-17.6v-0.021a363.008 363.008 0 0 0 29.61-19.904l-4.885 3.584a313.735 313.735 0 0 0 6.037-4.438l-1.152 0.854c2.155-1.6 4.31-3.243 6.443-4.907l-5.29 4.053c2.389-1.813 4.778-3.626 7.125-5.504l-1.835 1.451a411.909 411.909 0 0 0 8.213-6.613l-6.378 5.162a364.8 364.8 0 0 0 21.696-18.602l-1.323 1.216a468.326 468.326 0 0 0 5.845-5.483l-4.522 4.267a364.821 364.821 0 0 0 19.605-19.627l5.248-5.803 0.299-0.341a364.165 364.165 0 0 0 38.058-51.563l0.064-0.085 4.31-7.275a361.835 361.835 0 0 0 20.352-41.002l-2.432 5.653a357.355 357.355 0 0 0 10.069-25.472l-1.11 3.115a319.612 319.612 0 0 0 2.646-7.595l1.259-3.755 2.517-8.106a360.661 360.661 0 0 0 10.773-47.574c1.003-6.4 1.835-12.8 2.496-19.285l-0.32 3.008c0.32-3.03 0.64-6.059 0.875-9.11l-0.555 6.102a367.68 367.68 0 0 0 0.576-68.267l0.214 2.539-0.64-7.275 0.426 4.736a362.624 362.624 0 0 0-3.456-27.882 359.936 359.936 0 0 0-16.746-64.384 364.3 364.3 0 0 0-6.507-16.662l1.024 2.496a286.224 286.224 0 0 0-3.541-8.32v-0.021a360.661 360.661 0 0 0-17.558-34.73l0.47 0.81a363.904 363.904 0 0 0-43.264-60.373l-0.278-0.299-4.01-4.437-6.187-6.614a364.843 364.843 0 0 0-14.101-13.866l5.61 5.333a364.8 364.8 0 0 0-21.397-19.243l1.173 1.003a453.414 453.414 0 0 0-7.914-6.443l6.72 5.462a363.968 363.968 0 0 0-24.086-18.347 362.325 362.325 0 0 0-33.685-20.885 395.355 395.355 0 0 0-17.728-9.067l1.685 0.81a360.619 360.619 0 0 0-18.645-8.362l6.848 2.944c-2.475-1.11-4.97-2.155-7.467-3.2l0.598 0.256a321.278 321.278 0 0 0-9.6-3.84l9.002 3.584a315.468 315.468 0 0 0-10.026-3.947l1.045 0.384a348.55 348.55 0 0 0-8.981-3.285l7.957 2.901a325.748 325.748 0 0 0-9.045-3.285l1.066 0.384a362.453 362.453 0 0 0-128.128-20.373l-6.165 0.17a361.344 361.344 0 0 0-111.723 22.123l4.118-1.493c-2.56 0.896-5.12 1.834-7.659 2.794l3.541-1.301a367.701 367.701 0 0 0-19.093 7.68l8-3.392a360.555 360.555 0 0 0-9.067 3.84l1.067-0.448a360.704 360.704 0 0 0-7.488 3.35l6.4-2.902a488.108 488.108 0 0 0-8.277 3.776l1.877-0.853c-2.987 1.365-5.973 2.816-8.96 4.266l7.083-3.413a361.813 361.813 0 0 0-32.918 17.6v0.021a363.008 363.008 0 0 0-29.61 19.904l4.629-3.413a410.991 410.991 0 0 0-6.123 4.523l1.494-1.11a364.16 364.16 0 0 0-7.382 5.654l5.888-4.544a364.224 364.224 0 0 0-6.826 5.29l0.938-0.746a387.452 387.452 0 0 0-7.338 5.93l6.4-5.184a364.843 364.843 0 0 0-21.803 18.71l1.472-1.366a468.326 468.326 0 0 0-5.845 5.483l4.373-4.117a334.598 334.598 0 0 0-6.293 5.973v0.021a356.693 356.693 0 0 0-13.163 13.483l-5.248 5.803-0.299 0.341a363.733 363.733 0 0 0-62.869 100.139l2.517-5.867a357.035 357.035 0 0 0-10.133 25.685l1.13-3.2a420.096 420.096 0 0 0-4.138 12.096 360.683 360.683 0 0 0-13.163 55.766 362.816 362.816 0 0 0-2.474 19.669l0.426-3.925c-0.341 2.88-0.618 5.76-0.853 8.682l0.427-4.757a367.68 367.68 0 0 0-0.427 66.923l-0.213-2.539c0.213 2.88 0.49 5.76 0.768 8.619l-0.555-6.08a362.603 362.603 0 0 0 3.52 28.202 359.936 359.936 0 0 0 16.747 64.214 343.488 343.488 0 0 0 6.506 16.725l-0.64-1.6a360.747 360.747 0 0 0 20.992 42.56l4.31 7.296a364.203 364.203 0 0 0 38.122 51.627l0.278 0.341 5.077 5.61a364.907 364.907 0 0 0 15.787 16.043l-2.176-2.069 4.906 4.672c2.731 2.56 5.504 5.077 8.32 7.552l-2.133-1.899 3.925 3.478-1.792-1.579a404.183 404.183 0 0 0 7.296 6.272l-5.504-4.693c2.134 1.834 4.267 3.669 6.443 5.461l-0.939-0.768a360.544 360.544 0 0 0 14.507 11.477l-4.117-3.136a366.25 366.25 0 0 0 12.629 9.344h-0.021a364.267 364.267 0 0 0 22.186 14.507l-6.421-3.968a362.581 362.581 0 0 0 23.787 13.803l-0.811-0.427a318.945 318.945 0 0 0 6.528 3.413l-5.717-2.986a395.123 395.123 0 0 0 8.96 4.608l-3.243-1.622a350.292 350.292 0 0 0 9.856 4.822l-6.613-3.2a300.091 300.091 0 0 0 8.789 4.202l-2.176-1.002a302.21 302.21 0 0 0 7.552 3.434L360 713.365a309.605 309.605 0 0 0 7.659 3.435l-2.283-1.003c6.08 2.71 12.267 5.227 18.517 7.595l-7.829-3.05a359.808 359.808 0 0 0 25.13 9.087A362.453 362.453 0 0 0 512 746.667zM369.067 228.48l-3.478-1.365a383.275 383.275 0 0 1-76.224-42.198 298.368 298.368 0 0 1 160.299-93.077 448.064 448.064 0 0 0-80.597 136.64z m285.888 0.021l-0.32-0.832a447.701 447.701 0 0 0-80.32-135.829 298.368 298.368 0 0 1 160.32 93.056 382.421 382.421 0 0 1-79.68 43.605zM512 256c-28.01 0-55.317-2.987-81.621-8.683A383.957 383.957 0 0 1 512 118.4a384.299 384.299 0 0 1 81.621 128.896A384.533 384.533 0 0 1 512 256zM252.01 531.115l-2.986-5.44A297.344 297.344 0 0 1 213.334 384c0-53.483 14.08-103.68 38.677-147.115a446.528 446.528 0 0 0 99.157 53.376A448.512 448.512 0 0 0 341.333 384c0 32.15 3.392 63.53 9.814 93.76a445.867 445.867 0 0 0-99.136 53.355z m519.98 0l-4.48-3.158a446.827 446.827 0 0 0-94.678-50.218A450.62 450.62 0 0 0 682.667 384c0-32.15-3.392-63.53-9.814-93.76a445.867 445.867 0 0 0 99.136-53.355A297.365 297.365 0 0 1 810.667 384c0 53.483-14.08 103.68-38.678 147.115z m-160.64-72.043l-4.651-1.045C576.192 451.456 544.49 448 512 448c-34.133 0-67.392 3.819-99.35 11.05a386.432 386.432 0 0 1-7.317-75.05c0-25.685 2.518-50.773 7.339-75.072A448.79 448.79 0 0 0 512 320c34.133 0 67.392-3.819 99.35-11.05 4.8 24.255 7.317 49.365 7.317 75.05 0 25.685-2.518 50.773-7.339 75.072zM512 649.6l-3.307-3.499A384.107 384.107 0 0 1 430.4 520.704C456.683 515.008 483.99 512 512 512c28.01 0 55.317 2.987 81.621 8.683A383.957 383.957 0 0 1 512 649.6z m-62.293 26.56l-2.624-0.576a298.432 298.432 0 0 1-157.718-92.48 382.421 382.421 0 0 1 79.68-43.605 447.915 447.915 0 0 0 80.64 136.661z m124.629 0l2.987-3.52a447.573 447.573 0 0 0 77.61-133.12 381.845 381.845 0 0 1 79.702 43.563 298.368 298.368 0 0 1-160.299 93.077z"  horiz-adv-x="1024" />

    
    <glyph glyph-name="xuanze" unicode="&#59433;" d="M512 746.667c200.299 0 362.667-162.368 362.667-362.667S712.299 21.333 512 21.333 149.333 183.701 149.333 384 311.701 746.667 512 746.667z m0-64c-164.95 0-298.667-133.718-298.667-298.667S347.051 85.333 512 85.333 810.667 219.051 810.667 384 676.949 682.667 512 682.667z m169.045-127.04l45.91-44.587-271.83-279.723L318.293 373.27l46.08 44.416 90.944-94.336 225.728 232.278z"  horiz-adv-x="1024" />

    
    <glyph glyph-name="store" unicode="&#59434;" d="M746.667 85.333V287.98a138.24 138.24 0 0 1 64-10.24v-192.406a64 64 0 0 0-64-64h-192V170.667h-64v-149.334h-192a64 64 0 0 0-64 64V281.045a139.05 139.05 0 0 1 64 0v-195.712h128V234.667h192v-149.334h128V287.98zM725.653 704a64 64 0 0 0 54.976-31.253l101.76-170.838-0.277 0.022a110.72 110.72 0 0 0-182.08-122.966 120.299 120.299 0 0 0-87.765-37.824 120.47 120.47 0 0 0-90.582 40.896 120.47 120.47 0 0 0-90.56-40.896 120.427 120.427 0 0 0-87.765 37.824 110.72 110.72 0 0 0-175.787 133.76l85.568 157.782A64 64 0 0 0 309.397 704h416.256z m0-64H309.397l-86.912-160.213-1.493-2.304a46.72 46.72 0 0 1 74.197-56.384l46.315 52.97 48.363-51.136c10.688-11.328 25.386-17.792 41.258-17.792 16.555 0 31.83 7.04 42.582 19.243l48 54.357 47.978-54.357c10.752-12.203 26.027-19.243 42.582-19.243 15.872 0 30.549 6.464 41.216 17.75l48.32 51.2 46.378-52.971a46.72 46.72 0 0 1 76.864 51.819l-0.725 1.429L725.653 640z"  horiz-adv-x="1024" />

    
    <glyph glyph-name="zhanghaoguanli" unicode="&#59435;" d="M774.55 277.333a64 64 0 0 0 55.445-32l37.696-65.322a64 64 0 0 0 0-64l-37.696-65.323a64 64 0 0 0-55.446-32h-75.413a64 64 0 0 0-55.445 32l-37.696 65.323a64 64 0 0 0 0 64l37.696 65.322a64 64 0 0 0 55.445 32h75.413z m-385.153 37.078a254.331 254.331 0 0 1 61.227-26.944l-173.29-202.134h272.49l0.725-1.322 36.182-62.678H277.333a64 64 0 0 0-48.597 105.643l160.661 187.435zM774.55 213.333h-75.413l-37.717-65.322 37.717-65.323h75.413l37.718 65.323-37.718 65.322z m-39.04-32.554a32 32 0 1 0 0-64 32 32 0 0 0 0 64zM522.176 746.667c117.824 0 213.333-95.51 213.333-213.334S640 320 522.176 320s-213.333 95.51-213.333 213.333 95.509 213.334 213.333 213.334z m0-64a149.333 149.333 0 1 1 0-298.667 149.333 149.333 0 0 1 0 298.667z"  horiz-adv-x="1024" />

    
    <glyph glyph-name="dingweiweizhi" unicode="&#59436;" d="M499.772 851.185c-178.055 0-322.44-145.167-322.44-324.367 0-89.51 36.142-170.586 94.45-229.316l227.99-229.376 228.051 229.376a324.307 324.307 0 0 1 94.389 229.256c0 179.2-144.324 324.367-322.44 324.367z m0-468.45a143.721 143.721 0 0 0-143.36 144.083v0.12a143.661 143.661 0 0 0 143.3 144.083h0.06a143.721 143.721 0 0 0 143.36-144.083v-0.12a143.661 143.661 0 0 0-143.18-144.023h-0.18z m-143.36-420.021a143.36 60.235 0 1 1 286.72 0 143.36 60.235 0 1 1-286.72 0z"  horiz-adv-x="1024" />

    
    <glyph glyph-name="scanning" unicode="&#59437;" d="M234.667 256v-149.333h159.978v-64H234.667a64 64 0 0 0-64 64V256h64z m618.666 0v-149.333a64 64 0 0 0-64-64H629.312v64h160.021V256h64zM768 416v-64H256v64h512z m21.333 309.333a64 64 0 0 0 64-64V512h-64V661.333h-160v64h160z m-394.666 0v-64h-160V512h-64V661.333a64 64 0 0 0 64 64h160z"  horiz-adv-x="1024" />

    
    <glyph glyph-name="xiugaimima" unicode="&#59431;" d="M512.704 789.333A181.333 181.333 0 0 0 694.037 608l-0.021-53.333h95.317a64 64 0 0 0 64-64v-384a64 64 0 0 0-64-64H234.667a64 64 0 0 0-64 64v384a64 64 0 0 0 64 64h96.682V608a181.333 181.333 0 0 0 181.334 181.333z m276.63-298.666H234.666v-384h554.666v384zM550.122 384v-170.667h-64V384h64z m-37.419 341.333A117.333 117.333 0 0 1 395.371 608v-53.333h234.666V608a117.333 117.333 0 0 1-117.333 117.333z"  horiz-adv-x="1024" />

    
    <glyph glyph-name="tuichudenglu" unicode="&#59432;" d="M512 32.3c-47.2 0-93 9.2-136.1 27.5-41.6 17.6-79 42.8-111.1 74.9-32.1 32.1-57.3 69.5-74.9 111.1-18.2 43.1-27.5 88.9-27.5 136.1 0 117.3 58.4 226.2 156.2 291.3 14.7 9.8 34.6 5.8 44.4-8.9 9.8-14.7 5.8-34.6-8.9-44.4-79.9-53.2-127.7-142.1-127.7-238 0-76.3 29.7-148 83.7-202 53.9-53.9 125.7-83.7 202-83.7s148 29.7 202 83.7c53.9 53.9 83.7 125.7 83.7 202 0 95.2-47.2 183.9-126.4 237.1-14.7 9.9-18.5 29.8-8.7 44.4 9.9 14.7 29.8 18.6 44.4 8.7 96.8-65.2 154.7-173.7 154.7-290.2 0-47.2-9.2-93-27.5-136.1-17.6-41.6-42.8-79-74.9-111.1-32.1-32.1-69.5-57.3-111.1-74.9-43.3-18.3-89.1-27.5-136.3-27.5zM513 297.6c-17.6 0-32 14.3-32 31.9l-1.1 425.6c0 17.7 14.2 32 31.9 32.1h0.1c17.6 0 32-14.3 32-31.9l1.1-425.6c0-17.7-14.2-32.1-32-32.1 0.1 0 0 0 0 0z"  horiz-adv-x="1024" />

    
    <glyph glyph-name="zuojiantou" unicode="&#59429;" d="M304.265 349.867l214.8-214.801-48.264-48.265L173.602 384l297.2 297.199 48.264-48.265-214.801-214.8h549.068v-68.267z"  horiz-adv-x="1024" />

    
    <glyph glyph-name="you" unicode="&#59430;" d="M610.27 384L361.335 632.934 409.6 681.2 706.799 384 409.6 86.801l-48.265 48.265z"  horiz-adv-x="1024" />

    
    <glyph glyph-name="quxiao" unicode="&#59426;" d="M560.265 384L512 432.265l248.934 248.934 48.265-48.265L560.265 384l248.934-248.934-48.265-48.265L512 335.735 263.066 86.801 214.8 135.066 463.735 384 512 335.735 263.066 86.801 214.8 135.066 463.735 384 214.801 632.934l48.265 48.265L512 432.265l248.934 248.934 48.265-48.265z"  horiz-adv-x="1024" />

    
    <glyph glyph-name="jia" unicode="&#59427;" d="M546.133 418.133H819.2v-68.266H546.133v-307.2h-68.266v307.2H204.8v68.266h273.067V691.2h68.266z"  horiz-adv-x="1024" />

    
    <glyph glyph-name="sousuo" unicode="&#59428;" d="M740.25 199.817L846.848 94.07l-44.92-43.69-105.983 105.13A339.968 339.968 0 0 0 477.867 76.8c-188.519 0-341.334 152.815-341.334 341.333s152.815 341.334 341.334 341.334S819.2 606.652 819.2 418.133a339.968 339.968 0 0 0-78.95-218.316z m-262.383-54.75a273.067 273.067 0 1 1 0 546.133 273.067 273.067 0 0 1 0-546.133z"  horiz-adv-x="1024" />

    
    <glyph glyph-name="yewushuju_h" unicode="&#59420;" d="M694 512h98c22.092 0 40-17.908 40-40v-368c0-22.092-17.908-40-40-40h-98c-22.092 0-40 17.908-40 40V472c0 22.092 17.908 40 40 40zM500 400h98c22.092 0 40-17.908 40-40v-256c0-22.092-17.908-40-40-40h-98c-22.092 0-40 17.908-40 40V360c0 22.092 17.908 40 40 40zM304 280h88c22.092 0 40-17.91 40-40v-136c0-22.092-17.908-40-40-40h-88c-22.092 0-40 17.908-40 40V240c0 22.09 17.908 40 40 40zM658 644c-11.028 0-20-8.972-20-20v-500h134V624c0 11.028-8.97 20-20 20h-94m0 60h94c44.184 0 80-35.818 80-80v-540c0-11.046-8.954-20-20-20H598c-11.044 0-20 8.954-20 20V624c0 44.182 35.818 80 80 80zM462 484c-11.028 0-20-8.972-20-20v-340h136V464c0 11.028-8.97 20-20 20h-96m0 60h96c44.184 0 80-35.818 80-80v-380c0-11.046-8.954-20-20-20H402c-11.044 0-20 8.954-20 20V464c0 44.182 35.818 80 80 80zM272 324c-11.028 0-20-8.972-20-20v-180h130V304c0 11.028-8.97 20-20 20h-90m0 60h90c44.184 0 80-35.818 80-80v-220c0-11.046-8.954-20-20-20H212c-11.044 0-20 8.954-20 20V304c0 44.182 35.818 80 80 80z"  horiz-adv-x="1024" />

    
    <glyph glyph-name="yewushuju" unicode="&#59421;" d="M658 644c-11 0-20-9-20-20v-500h134V624c0 11-9 20-20 20h-94m0 60h94c44.2 0 80-35.8 80-80v-540c0-11-9-20-20-20H598c-11 0-20 9-20 20V624c0 44.2 35.8 80 80 80zM462 484c-11 0-20-9-20-20v-340h136V464c0 11-9 20-20 20h-96m0 60h96c44.2 0 80-35.8 80-80v-380c0-11-9-20-20-20H402c-11 0-20 9-20 20V464c0 44.2 35.8 80 80 80zM272 324c-11 0-20-9-20-20v-180h130v180c0 11-9 20-20 20h-90m0 60h90c44.2 0 80-35.8 80-80v-220c0-11-9-20-20-20H212c-11 0-20 9-20 20V304c0 44.2 35.8 80 80 80z"  horiz-adv-x="1024" />

    
    <glyph glyph-name="chechangguanli" unicode="&#59422;" d="M304 644c-28.6 0-52-23.4-52-52s23.4-52 52-52 52 23.4 52 52-23.4 52-52 52m0 60c61.8 0 112-50.2 112-112s-50.2-112-112-112-112 50.2-112 112 50.2 112 112 112z m416-60c-28.6 0-52-23.4-52-52s23.4-52 52-52 52 23.4 52 52-23.4 52-52 52m0 60c61.8 0 112-50.2 112-112s-50.2-112-112-112-112 50.2-112 112 50.2 112 112 112zM304 228c-28.6 0-52-23.4-52-52s23.4-52 52-52 52 23.4 52 52-23.4 52-52 52m0 60c61.8 0 112-50.2 112-112s-50.2-112-112-112-112 50.2-112 112 50.2 112 112 112z m416-60c-28.6 0-52-23.4-52-52s23.4-52 52-52 52 23.4 52 52-23.4 52-52 52m0 60c61.8 0 112-50.2 112-112s-50.2-112-112-112-112 50.2-112 112 50.2 112 112 112zM274 486h60v-204h-60V486z m416 0h60v-204h-60V486z m-280 136h204v-60H410v60z m0-416h204v-60H410v60z"  horiz-adv-x="1024" />

    
    <glyph glyph-name="gerenzhongxin_h" unicode="&#59423;" d="M506.5 680h121.25c13.392 0 24.25-10.858 24.25-24.25V583c0-53.572-43.428-97-97-97-53.57 0-97 43.428-97 97v48.5c0 26.786 21.714 48.5 48.5 48.5zM490 246h242c55.228 0 100-44.774 100-100v-42c0-22.092-17.908-40-40-40H430c-22.092 0-40 17.908-40 40v42c0 55.228 44.77 100 100 100zM432 644c-11.028 0-20-8.972-20-20v-80c0-55.14 44.86-100 100-100s100 44.86 100 100v80c0 11.028-8.97 20-20 20H432m0 60h160c44.184 0 80-35.818 80-80v-80c0-88.366-71.634-160-160-160s-160 71.634-160 160v80c0 44.182 35.818 80 80 80z m-90-436c-49.626 0-90-40.376-90-90v-54h520v54c0 49.626-40.374 90-90 90H342m0 60h340c82.844 0 150-67.158 150-150v-74c0-22.092-17.908-40-40-40H232c-22.092 0-40 17.908-40 40v74c0 82.842 67.158 150 150 150zM592 156H432c-16.568 0-30 13.432-30 30s13.432 30 30 30h160c16.568 0 30-13.432 30-30s-13.432-30-30-30z"  horiz-adv-x="1024" />

    
    <glyph glyph-name="chechangguanli_h" unicode="&#59424;" d="M442 454h308v-308H442V454zM304 644c-28.672 0-52-23.328-52-52 0-28.674 23.328-52 52-52 28.674 0 52 23.326 52 52 0 28.672-23.326 52-52 52m0 60c61.856 0 112-50.144 112-112s-50.144-112-112-112-112 50.144-112 112 50.144 112 112 112z m416-60c-28.672 0-52-23.328-52-52 0-28.674 23.328-52 52-52 28.674 0 52 23.326 52 52 0 28.672-23.326 52-52 52m0 60c61.856 0 112-50.144 112-112s-50.144-112-112-112-112 50.144-112 112 50.144 112 112 112zM304 228c-28.672 0-52-23.328-52-52 0-28.674 23.328-52 52-52 28.674 0 52 23.326 52 52 0 28.672-23.326 52-52 52m0 60c61.856 0 112-50.144 112-112 0-61.858-50.144-112-112-112s-112 50.142-112 112c0 61.856 50.144 112 112 112z m416-60c-28.672 0-52-23.328-52-52 0-28.674 23.328-52 52-52 28.674 0 52 23.326 52 52 0 28.672-23.326 52-52 52m0 60c61.856 0 112-50.144 112-112 0-61.858-50.144-112-112-112s-112 50.142-112 112c0 61.856 50.144 112 112 112zM274 486h60v-204h-60z m416 0h60v-204h-60zM410 622h204v-60H410z m0-416h204v-60H410z"  horiz-adv-x="1024" />

    
    <glyph glyph-name="gerenzhongxin" unicode="&#59425;" d="M432 644c-11 0-20-9-20-20v-80c0-55.2 44.8-100 100-100s100 44.8 100 100v80c0 11-9 20-20 20h-160m0 60h160c44.2 0 80-35.8 80-80v-80c0-88.4-71.6-160-160-160s-160 71.6-160 160v80c0 44.2 35.8 80 80 80z m-90-436c-49.6 0-90-40.4-90-90v-54h520v54c0 49.6-40.4 90-90 90H342m0 60h340c82.8 0 150-67.2 150-150v-74c0-22-18-40-40-40H232c-22 0-40 18-40 40v74c0 82.8 67.2 150 150 150zM592 156h-160c-16.6 0-30 13.4-30 30s13.4 30 30 30h160c16.6 0 30-13.4 30-30s-13.4-30-30-30z"  horiz-adv-x="1024" />

    


  </font>
</defs>
</svg>
